(Classical/Cello) [LP] [24/48] /Sviatoslav Knushevitsky/Святослав Кнушевицкий (виолончель) - Из Сокровищницы Мирового Исполнительского Искусства (А. Хачатурян, С. Рахманинов, А. Глазунов) - 1980, FLAC (image+.cue)


Статистика раздачи [Обновить пиров]
Размер:  259 MB   |    Зарегистрирован:  8 месяцев 19 дней   |    Скачан:  0 раз

Полного источника не было: Никогда

Личеров:  3  [  0 KB/s  ]   Подробная статистика пиров
 
   
 
 
 

[Цитировать]

Святослав Кнушевицкий - Виолончель (Из Сокровищницы Мирового Исполнительского Искусства) /Sviatoslav Knushevitsky - Cello(The World's Leading Interpreters Of Music)
Жанр: Classical/Cello
Носитель: LP
Год выпуска: 1980
Лейбл: Melodya
Страна-производитель: USSR
Аудио кодек: FLAC
Тип рипа: image+.cue
Формат записи: 32/192
Формат раздачи: 24/48
Продолжительность: 48.17 min
Источник оцифровки: автором раздачи
Код класса состояния винила: Mint
Устройство воспроизведения: Электроника ЭП 017С
Головка звукоснимателя: Audio-Technica AT95
Предварительный усилитель: Бриг-001
АЦП: VIA HD audio device
Программа-оцифровщик: Izotope RX III Advanced
Обработка: Manual-Треклист:
Side One:
A. Khachaturian (1903-1978)
01. Allegro moderato
02. Andante sostenuto
03. Allegro a battuta
The USSR Academic Symphony Orchestra
Conductor A.Gauk.
S. Rachmaninov (1873-1943)
04. Sonata for Cello and Piano - In G minor,op 19
L. Oborin, piano
A. Glazunov (1865-1936)
05. Spanish Serenade - op.20 №1
The USSR Academic Symphony Orchestra
Conductor N.Anosov.
Archive Recordings 1947,1952
Restoration By O.Gurova
Designer B.Belov

Спектр+АЧХ+Уровень записи


DR=13

foobar2000 1.1.10 / Dynamic Range Meter 1.1.1
log date: 2014-10-14 16:48:38
--------------------------------------------------------------------------------
Analyzed: Sviatoslav Knushevitsky / Cello
--------------------------------------------------------------------------------
DR Peak RMS Duration Track
--------------------------------------------------------------------------------
DR15 -0.30 dB -20.88 dB 17:07 ?-Allegro moderato
DR14 -3.64 dB -22.64 dB 7:51 ?-Andante sostenuto
DR14 -2.43 dB -20.24 dB 10:06 ?-Allegro a battuta
DR14 -3.31 dB -21.64 dB 10:12 ?-Sonata for Cello and Piano - In G minor,op 19
DR10 -3.54 dB -16.97 dB 3:01 ?-Spanish Serenade - op.20 №1
--------------------------------------------------------------------------------
Number of tracks: 5
Official DR value: DR13
Samplerate: 48000 Hz
Channels: 1
Bits per sample: 24
Bitrate: 710 kbps
Codec: FLAC
================================================================================

Back & Inner & Disc





[teatrix.ru].t19241.torrent 
Торрент: Зарегистрирован [ 2016-03-18 12:52 ] · F1F16E5A0128804EB90542A115A22230BC8F82A2

Скачать .torrent

Скачать

11 KB

Статус: проверено
Скачан: 0 раз
Размер: 259 MB
terms.php



Быстрый ответ

Имя:

      
Для отправки сообщений необходимо включить JavaScript
Показать сообщения:    

Текущее время: 06-Дек 15:05

Часовой пояс: UTC + 3


Вы можете начинать темы
Вы можете отвечать на сообщения
Вы не можете редактировать свои сообщения
Вы не можете удалять свои сообщения
Вы не можете голосовать в опросах
Вы не можете прикреплять файлы к сообщениям
Вы можете скачивать файлы