(Opera) Rossini - Guillaume Tell (Pons-Tena, Munoz, Galkin, Gonzales, Specht - Putbus Festival Orchestra, Keitel) - 1997, APE (image+.cue) lossless


 

[Цитировать]

Gioacchino Rossini - Guillaume Tell
Жанр: Opera
Страна-производитель диска: Germany
Год издания диска: 1997
Издатель (лейбл): Arte Nova
Номер по каталогу: 74321 49704-2
Дата записи: 1996
Аудиокодек: APE
Тип рипа: image+.cue
Битрейт аудио: lossless
Продолжительность: 65'51+42'04+59'39
Источник: собственный рип
Наличие сканов в содержимом раздачи: да
Треклист:

CD1

1. Act 1.: Ouverture
2. Act 1.: "È il ciel seren"
3. Act 1.: "Il picciol legno ascendi"
4. Act 1.: "Oh! quale alta d'intorno"
5. Act 1.: "Al fremer del torrente"
6. Act 1.: "Contro l'ardor del giorno"
7. Act 1.: "Il mio giuro, egli disse"
8. Act 1.: "Arresta! Quali sguardi!"
9. Act 1.: "Oh smania!"
10. Act 1.: "Delle antiche virtudi l'esempio"
11. Act 1.: "Cinto il crine di bei fiori"
12. Act 1.: "Ecco là, tremante"
13. Act 1.: "Nume pietoso"
14. Act 1.: "Che sento!...ohimè!"
15. Act 1.: "Ciò ch'ei fece l'oserebbe!"

CD2

1. Act 2.: "S'allontanano alfine!"
2. Act 2.: "Selva opaca, deserta brughiera"
3. Act 2.: "Se il mio giunger t'oltraggia"
4. Act 2.: "Tutto apprendi, o sventurato"
5. Act 2.: "Alcun vien"
6. Act 2.: "Allor che scorre de' forti il sangue"
7. Act 2.: "Troncar suoi dì quell'empio"
8. Act 2.: "È dunque vero?"
9. Act 2.: "Onor, onor della patria"
10. Act 2.: "la valanga che volve"
11. Act 2.: "Giuriam, giuriam pei nostri danni"

CD3

1. Act 3.: "Arnoldo, e d'onde nasce"
2. Act 3.: "Ah! Se privo di speme è l'amore"
3. Act 3.: "Gloria al poter supremo!"
4. Act 3.: "inchinati superbo!"
5. Act 3.: "Quel fasto m'offende
6. Act 3.: "Corri alla madre"
7. Act 3.: "Resta immobile, e vêr la terra"
8. Act 3.: "Vittoria!"
9. Act 3.: "È suo destin segnato"
10. Act 3.: "Anatema a Gessler!"
11. Act 4.: "Non mi lascare, o speme di vendetta"
12. Act 4.: "Oh mutto asil del pianto"
13. Act 4.: "Vendetta! Vendetta!"
14. Act 4.: "Corriam, voliam"
15. Act 4.: "Tempesta"
16. Act 4.: "Gessler! Tu puoi venir!"
17. Act 4. Finale I.: "Viva la Svezia"
18. Act 4. Finale II.: "Tutto cangia"
Исполнители:
Gioacchino Rossini - Guillaume Tell
Tragic melodrama in four Acts
Libretto: Victor Joseph Etienne de Joy & Hippolyte Louis Florent Bis
Italian Text: Luigi Balocchi and Calisto Bassi
Guglielmo Tell - Ismael Pons Tena, baritone
Arnoldo Melchtal - Daniel Muñoz, tenor
Gualtiero Furst - Anatoli Galkin, bass-baritone
Melchthal - Dimitri Kapilov, bass-baritone
Jemmy - Carmen Gonzales, soprano
Edwige - Sybylle Specht, mezzo-soprano
Un pescatore - Patrizio Saudelli, tenor
Leutoldo - Gianpiero Ruggeri, baritone
Gessler - Ezio Maria Tisi, bass
Matilde - Monica Martins, soprano
Rodolfo - Emilio Sánchez, tenor
Putbus Festival Chorus
Putbus Festival Orchestra
Conductor Wilhelm Keitel
performed in Italian

Лог создания рипа

CD1

Exact Audio Copy V1.0 beta 3 from 29. August 2011
EAC extraction logfile from 24. September 2014, 17:09
Rossini / Guglielmo Tell, Keitel CD1
Used drive : TS8XDVDSTRANSCEND Adapter: 1 ID: 1
Read mode : Secure
Utilize accurate stream : Yes
Defeat audio cache : Yes
Make use of C2 pointers : No
Read offset correction : 6
Overread into Lead-In and Lead-Out : No
Fill up missing offset samples with silence : Yes
Delete leading and trailing silent blocks : No
Null samples used in CRC calculations : Yes
Used interface : Native Win32 interface for Win NT & 2000
Used output format : Monkey's Audio Lossless Encoder
Selected bitrate : High Lossless Compression
Quality : High
Add ID3 tag : No
Command line compressor : C:\Program Files (x86)\Exact Audio Copy\MAC\MAC.exe
TOC of the extracted CD
Track | Start | Length | Start sector | End sector
---------------------------------------------------------
1 | 0:00.00 | 11:32.19 | 0 | 51918
2 | 11:32.19 | 4:07.47 | 51919 | 70490
3 | 15:39.66 | 5:12.57 | 70491 | 93947
4 | 20:52.48 | 5:34.51 | 93948 | 119048
5 | 26:27.24 | 1:50.03 | 119049 | 127301
6 | 28:17.27 | 1:03.09 | 127302 | 132035
7 | 29:20.36 | 2:48.73 | 132036 | 144708
8 | 32:09.34 | 9:07.22 | 144709 | 185755
9 | 41:16.56 | 3:52.43 | 185756 | 203198
10 | 45:09.24 | 3:15.14 | 203199 | 217837
11 | 48:24.38 | 5:08.32 | 217838 | 240969
12 | 53:32.70 | 3:35.42 | 240970 | 257136
13 | 57:08.37 | 3:29.22 | 257137 | 272833
14 | 60:37.59 | 2:20.71 | 272834 | 283404
15 | 62:58.55 | 2:50.03 | 283405 | 296157
Range status and errors
Selected range
Filename D:\EAC\Rossini - Guglielmo Tell, Keitel CD1.wav
Peak level 99.7 %
Extraction speed 3.2 X
Range quality 100.0 %
Test CRC A3EDF250
Copy CRC A3EDF250
Copy OK
No errors occurred
AccurateRip summary
Track 1 accurately ripped (confidence 1) [1D52EBE2] (AR v1)
Track 2 accurately ripped (confidence 1) [0B457A5C] (AR v1)
Track 3 accurately ripped (confidence 1) [992F4145] (AR v1)
Track 4 accurately ripped (confidence 1) [85AF7183] (AR v1)
Track 5 accurately ripped (confidence 1) [39ACC727] (AR v1)
Track 6 accurately ripped (confidence 1) [7B4D28CD] (AR v1)
Track 7 accurately ripped (confidence 1) [6C3EEBE0] (AR v1)
Track 8 accurately ripped (confidence 1) [E2E3E1B5] (AR v1)
Track 9 accurately ripped (confidence 1) [04BBF0F9] (AR v1)
Track 10 accurately ripped (confidence 1) [AE10AAF2] (AR v1)
Track 11 accurately ripped (confidence 1) [962AF402] (AR v1)
Track 12 accurately ripped (confidence 1) [4EBB2322] (AR v1)
Track 13 accurately ripped (confidence 1) [BCE06EBB] (AR v1)
Track 14 accurately ripped (confidence 1) [5D1A911D] (AR v1)
Track 15 accurately ripped (confidence 1) [2D7D7D62] (AR v1)
All tracks accurately ripped
End of status report
---- CUETools DB Plugin V2.1.3
[CTDB TOCID: uV.nYi13HjduChzfeiU.OcXGzbA-] disk not present in database, Submit result: unrecognized or virtual drive
==== Log checksum 4A35E2C1634BDC4C3BCA46741DF488C04A38C35804823F9BDC4D03F58DE7226B ====

CD2

Exact Audio Copy V1.0 beta 3 from 29. August 2011
EAC extraction logfile from 24. September 2014, 17:02
Rossini / Guglielmo Tell, Keitel CD2
Used drive : TSSTcorpCDDVDW SE-208AB Adapter: 1 ID: 0
Read mode : Secure
Utilize accurate stream : Yes
Defeat audio cache : Yes
Make use of C2 pointers : No
Read offset correction : 6
Overread into Lead-In and Lead-Out : No
Fill up missing offset samples with silence : Yes
Delete leading and trailing silent blocks : No
Null samples used in CRC calculations : Yes
Used interface : Native Win32 interface for Win NT & 2000
Used output format : Monkey's Audio Lossless Encoder
Selected bitrate : High Lossless Compression
Quality : High
Add ID3 tag : No
Command line compressor : C:\Program Files (x86)\Exact Audio Copy\MAC\MAC.exe
TOC of the extracted CD
Track | Start | Length | Start sector | End sector
---------------------------------------------------------
1 | 0:00.00 | 3:48.49 | 0 | 17148
2 | 3:48.49 | 5:24.17 | 17149 | 41465
3 | 9:12.66 | 2:30.48 | 41466 | 52763
4 | 11:43.39 | 8:40.24 | 52764 | 91787
5 | 20:23.63 | 3:23.70 | 91788 | 107082
6 | 23:47.58 | 3:39.61 | 107083 | 123568
7 | 27:27.44 | 3:25.35 | 123569 | 138978
8 | 30:53.04 | 2:30.05 | 138979 | 150233
9 | 33:23.09 | 2:07.23 | 150234 | 159781
10 | 35:30.32 | 2:32.46 | 159782 | 171227
11 | 38:03.03 | 3:59.09 | 171228 | 189161
Range status and errors
Selected range
Filename D:\EAC\Rossini - Guglielmo Tell, Keitel CD2.wav
Peak level 99.7 %
Extraction speed 1.8 X
Range quality 100.0 %
Test CRC A3AE2F4C
Copy CRC A3AE2F4C
Copy OK
No errors occurred
AccurateRip summary
Track 1 accurately ripped (confidence 1) [885CA427] (AR v1)
Track 2 accurately ripped (confidence 1) [B7336719] (AR v1)
Track 3 accurately ripped (confidence 1) [B3FEFC36] (AR v1)
Track 4 accurately ripped (confidence 1) [BAF37FDF] (AR v1)
Track 5 accurately ripped (confidence 1) [759E11BC] (AR v1)
Track 6 accurately ripped (confidence 1) [3D301C76] (AR v1)
Track 7 accurately ripped (confidence 1) [29240F1D] (AR v1)
Track 8 accurately ripped (confidence 1) [2C1380F6] (AR v1)
Track 9 accurately ripped (confidence 1) [19BC4F1E] (AR v1)
Track 10 accurately ripped (confidence 1) [FFC32254] (AR v1)
Track 11 accurately ripped (confidence 1) [8BA51BF2] (AR v1)
All tracks accurately ripped
End of status report
---- CUETools DB Plugin V2.1.3
[CTDB TOCID: 3VX76PHwkEGL1wx6QIEtK4uip3g-] disk not present in database, Submit result: 3VX76PHwkEGL1wx6QIEtK4uip3g- has been uploaded
==== Log checksum F28DF8FF148083D6C33F279310CC67B5955C8768B557507062C253FAF03BD52A ====

CD3

Exact Audio Copy V1.0 beta 3 from 29. August 2011
EAC extraction logfile from 24. September 2014, 18:24
Rossini / Guglielmo Tell, Keitel CD3
Used drive : TSSTcorpCDDVDW SE-208AB Adapter: 1 ID: 0
Read mode : Secure
Utilize accurate stream : Yes
Defeat audio cache : Yes
Make use of C2 pointers : No
Read offset correction : 6
Overread into Lead-In and Lead-Out : No
Fill up missing offset samples with silence : Yes
Delete leading and trailing silent blocks : No
Null samples used in CRC calculations : Yes
Used interface : Native Win32 interface for Win NT & 2000
Used output format : Monkey's Audio Lossless Encoder
Selected bitrate : High Lossless Compression
Quality : High
Add ID3 tag : No
Command line compressor : C:\Program Files (x86)\Exact Audio Copy\MAC\MAC.exe
TOC of the extracted CD
Track | Start | Length | Start sector | End sector
---------------------------------------------------------
1 | 0:00.00 | 2:29.37 | 0 | 11211
2 | 2:29.37 | 5:58.31 | 11212 | 38092
3 | 8:27.68 | 6:01.29 | 38093 | 65196
4 | 14:29.22 | 2:23.45 | 65197 | 75966
5 | 16:52.67 | 3:00.18 | 75967 | 89484
6 | 19:53.10 | 6:19.07 | 89485 | 117916
7 | 26:12.17 | 4:03.43 | 117917 | 136184
8 | 30:15.60 | 5:40.55 | 136185 | 161739
9 | 35:56.40 | 2:18.68 | 161740 | 172157
10 | 38:15.33 | 1:48.62 | 172158 | 180319
11 | 40:04.20 | 3:21.74 | 180320 | 195468
12 | 43:26.19 | 3:24.70 | 195469 | 210838
13 | 46:51.14 | 2:01.53 | 210839 | 219966
14 | 48:52.67 | 1:38.73 | 219967 | 227389
15 | 50:31.65 | 2:18.70 | 227390 | 237809
16 | 52:50.60 | 1:04.49 | 237810 | 242658
17 | 53:55.34 | 2:23.54 | 242659 | 253437
18 | 56:19.13 | 3:18.25 | 253438 | 268312
Range status and errors
Selected range
Filename D:\EAC\Rossini - Guglielmo Tell, Keitel CD3.wav
Peak level 99.7 %
Extraction speed 2.0 X
Range quality 100.0 %
Test CRC D6B803CE
Copy CRC D6B803CE
Copy OK
No errors occurred
AccurateRip summary
Track 1 accurately ripped (confidence 1) [D5FC8AEE] (AR v1)
Track 2 accurately ripped (confidence 1) [8E46DCD5] (AR v1)
Track 3 accurately ripped (confidence 1) [4EEDE469] (AR v1)
Track 4 accurately ripped (confidence 1) [6FCB6426] (AR v1)
Track 5 accurately ripped (confidence 1) [C9DECB9E] (AR v1)
Track 6 accurately ripped (confidence 1) [3AA17078] (AR v1)
Track 7 accurately ripped (confidence 1) [E74358DD] (AR v1)
Track 8 accurately ripped (confidence 1) [DD86D039] (AR v1)
Track 9 accurately ripped (confidence 1) [F1F43078] (AR v1)
Track 10 accurately ripped (confidence 1) [A61632B7] (AR v1)
Track 11 accurately ripped (confidence 1) [BA84374E] (AR v1)
Track 12 accurately ripped (confidence 1) [61B309B1] (AR v1)
Track 13 accurately ripped (confidence 1) [1CA7CAE9] (AR v1)
Track 14 accurately ripped (confidence 1) [D30B7295] (AR v1)
Track 15 accurately ripped (confidence 1) [1494009F] (AR v1)
Track 16 accurately ripped (confidence 1) [15928454] (AR v1)
Track 17 accurately ripped (confidence 1) [760041C4] (AR v1)
Track 18 accurately ripped (confidence 1) [6BE29A63] (AR v1)
All tracks accurately ripped
End of status report
---- CUETools DB Plugin V2.1.3
[CTDB TOCID: sV_qPg8Ba1Nz8ew6CVdoBNYRWZk-] disk not present in database, Submit result: sV_qPg8Ba1Nz8ew6CVdoBNYRWZk- has been uploaded
==== Log checksum 8F1DA2844A85FF3A5CBAFF836AD215BE057ED0CCA8E9B8FDCC52F56E10741E14 ====

Содержание индексной карты (.CUE)

CD1

REM GENRE Opera
REM DATE 1996
REM DISCID E90F6C0F
REM COMMENT "ExactAudioCopy v1.0b3"
PERFORMER "Rossini"
TITLE "Guglielmo Tell, Keitel CD1"
FILE "Rossini - Guglielmo Tell, Keitel CD1.ape" WAVE
TRACK 01 AUDIO
TITLE "Act 1.: Ouverture"
PERFORMER "Rossini"
INDEX 01 00:00:00
TRACK 02 AUDIO
TITLE "Act 1.: 'È il ciel seren'"
PERFORMER "Rossini"
INDEX 01 11:32:19
TRACK 03 AUDIO
TITLE "Act 1.: 'Il picciol legno ascendi'"
PERFORMER "Rossini"
INDEX 01 15:39:66
TRACK 04 AUDIO
TITLE "Act 1.: 'Oh! quale alta d'intorno'"
PERFORMER "Rossini"
INDEX 01 20:52:48
TRACK 05 AUDIO
TITLE "Act 1.: 'Al fremer del torrente'"
PERFORMER "Rossini"
INDEX 01 26:27:24
TRACK 06 AUDIO
TITLE "Act 1.: 'Contro l'ardor del giorno'"
PERFORMER "Rossini"
INDEX 01 28:17:27
TRACK 07 AUDIO
TITLE "Act 1.: 'Il mio giuro, egli disse'"
PERFORMER "Rossini"
INDEX 01 29:20:36
TRACK 08 AUDIO
TITLE "Act 1.: 'Arresta! Quali sguardi!'"
PERFORMER "Rossini"
INDEX 01 32:09:34
TRACK 09 AUDIO
TITLE "Act 1.: 'Oh smania!'"
PERFORMER "Rossini"
INDEX 01 41:16:56
TRACK 10 AUDIO
TITLE "Act 1.: 'Delle antiche virtudi l'esempio'"
PERFORMER "Rossini"
INDEX 01 45:09:24
TRACK 11 AUDIO
TITLE "Act 1.: 'Cinto il crine di bei fiori'"
PERFORMER "Rossini"
INDEX 01 48:24:38
TRACK 12 AUDIO
TITLE "Act 1.: 'Ecco là, tremante'"
PERFORMER "Rossini"
INDEX 01 53:32:70
TRACK 13 AUDIO
TITLE "Act 1.: 'Nume pietoso'"
PERFORMER "Rossini"
INDEX 01 57:08:37
TRACK 14 AUDIO
TITLE "Act 1.: 'Che sento!...ohimè!'"
PERFORMER "Rossini"
INDEX 01 60:37:59
TRACK 15 AUDIO
TITLE "Act 1.: 'Ciò ch'ei fece l'oserebbe!'"
PERFORMER "Rossini"
INDEX 01 62:58:55

CD2

REM GENRE Opera
REM DATE 1996
REM DISCID 8209DA0B
REM COMMENT "ExactAudioCopy v1.0b3"
PERFORMER "Rossini"
TITLE "Guglielmo Tell, Keitel CD2"
FILE "Rossini - Guglielmo Tell, Keitel CD2.ape" WAVE
TRACK 01 AUDIO
TITLE "Act 2.: 'S'allontanano alfine!'"
PERFORMER "Rossini"
INDEX 01 00:00:00
TRACK 02 AUDIO
TITLE "Act 2.: 'Selva opaca, deserta brughiera'"
PERFORMER "Rossini"
INDEX 01 03:48:49
TRACK 03 AUDIO
TITLE "Act 2.: 'Se il mio giunger t'oltraggia'"
PERFORMER "Rossini"
INDEX 01 09:12:66
TRACK 04 AUDIO
TITLE "Act 2.: 'Tutto apprendi, o sventurato'"
PERFORMER "Rossini"
INDEX 01 11:43:39
TRACK 05 AUDIO
TITLE "Act 2.: 'Alcun vien'"
PERFORMER "Rossini"
INDEX 01 20:23:63
TRACK 06 AUDIO
TITLE "Act 2.: 'Allor che scorre de' forti il sangue'"
PERFORMER "Rossini"
INDEX 01 23:47:58
TRACK 07 AUDIO
TITLE "Act 2.: 'Troncar suoi dì quell'empio'"
PERFORMER "Rossini"
INDEX 01 27:27:44
TRACK 08 AUDIO
TITLE "Act 2.: 'È dunque vero?'"
PERFORMER "Rossini"
INDEX 01 30:53:04
TRACK 09 AUDIO
TITLE "Act 2.: 'Onor, onor della patria'"
PERFORMER "Rossini"
INDEX 01 33:23:09
TRACK 10 AUDIO
TITLE "Act 2.: 'la valanga che volve'"
PERFORMER "Rossini"
INDEX 01 35:30:32
TRACK 11 AUDIO
TITLE "Act 2.: 'Giuriam, giuriam pei nostri danni'"
PERFORMER "Rossini"
INDEX 01 38:03:03

CD3

REM GENRE Opera
REM DATE 1996
REM DISCID F30DF912
REM COMMENT "ExactAudioCopy v1.0b3"
PERFORMER "Rossini"
TITLE "Guglielmo Tell, Keitel CD3"
FILE "Rossini - Guglielmo Tell, Keitel CD3.ape" WAVE
TRACK 01 AUDIO
TITLE "Act 3.: 'Arnoldo, e d'onde nasce'"
PERFORMER "Rossini"
INDEX 01 00:00:00
TRACK 02 AUDIO
TITLE "Act 3.: 'Ah! Se privo di speme è l'amore'"
PERFORMER "Rossini"
INDEX 01 02:29:37
TRACK 03 AUDIO
TITLE "Act 3.: 'Gloria al poter supremo!'"
PERFORMER "Rossini"
INDEX 01 08:27:68
TRACK 04 AUDIO
TITLE "Act 3.: 'inchinati superbo!'"
PERFORMER "Rossini"
INDEX 01 14:29:22
TRACK 05 AUDIO
TITLE "Act 3.: 'Quel fasto m'offende"
PERFORMER "Rossini"
INDEX 01 16:52:67
TRACK 06 AUDIO
TITLE "Act 3.: 'Corri alla madre'"
PERFORMER "Rossini"
INDEX 01 19:53:10
TRACK 07 AUDIO
TITLE "Act 3.: 'Resta immobile, e vêr la terra'"
PERFORMER "Rossini"
INDEX 01 26:12:17
TRACK 08 AUDIO
TITLE "Act 3.: 'Vittoria!'"
PERFORMER "Rossini"
INDEX 01 30:15:60
TRACK 09 AUDIO
TITLE "Act 3.: 'È suo destin segnato'"
PERFORMER "Rossini"
INDEX 01 35:56:40
TRACK 10 AUDIO
TITLE "Act 3.: 'Anatema a Gessler!'"
PERFORMER "Rossini"
INDEX 01 38:15:33
TRACK 11 AUDIO
TITLE "Act 4.: 'Non mi lascare, o speme di vendetta'"
PERFORMER "Rossini"
INDEX 01 40:04:20
TRACK 12 AUDIO
TITLE "Act 4.: 'Oh mutto asil del pianto'"
PERFORMER "Rossini"
INDEX 01 43:26:19
TRACK 13 AUDIO
TITLE "Act 4.: 'Vendetta! Vendetta!'"
PERFORMER "Rossini"
INDEX 01 46:51:14
TRACK 14 AUDIO
TITLE "Act 4.: 'Corriam, voliam'"
PERFORMER "Rossini"
INDEX 01 48:52:67
TRACK 15 AUDIO
TITLE "Act 4.: 'Tempesta'"
PERFORMER "Rossini"
INDEX 01 50:31:65
TRACK 16 AUDIO
TITLE "Act 4.: 'Gessler! Tu puoi venir!'"
PERFORMER "Rossini"
INDEX 01 52:50:60
TRACK 17 AUDIO
TITLE "Act 4. Finale I.: 'Viva la Svezia'"
PERFORMER "Rossini"
INDEX 01 53:55:34
TRACK 18 AUDIO
TITLE "Act 4. Finale II.: 'Tutto cangia'"
PERFORMER "Rossini"
INDEX 01 56:19:13



Показать сообщения:    

Текущее время: 07-Дек 21:18

Часовой пояс: UTC + 3


Вы не можете начинать темы
Вы не можете отвечать на сообщения
Вы не можете редактировать свои сообщения
Вы не можете удалять свои сообщения
Вы не можете голосовать в опросах
Вы не можете прикреплять файлы к сообщениям
Вы не можете скачивать файлы