Удар властью. Юлия Тимошенко (ТВЦ) [15/10/2014, Документалистика, DVB]


Статистика раздачи [Обновить пиров]
Размер:  666 MB   |    Зарегистрирован:  8 месяцев 18 дней   |    Скачан:  0 раз

Полного источника не было: Никогда

Личеров:  3  [  0 KB/s  ]   Подробная статистика пиров
 
   
 
 
 

[Цитировать]

Удар властью. Юлия Тимошенко
Дата/Год выпуска: 15/10/2014
Страна: Россия
Жанр: Документалистика
Продолжительность: 00:39:00
Перевод: Не требуется
Русские субтитры: есть
Формат субтитров: Teletext
Режиссер: ТВЦ
Телеканал: ТВЦ
Описание: Герои политического Олимпа в эпоху перемен - во времена больших опасностей и тяжелых решений. Они поднялись на вершины власти и разбились, падая с них. Большая политика и большая драма... Откровенные интервью близких и врагов знаменитых политиков. Юлия Тимошенко - её обвиняют в масштабной коррупции и благодарят за эффективные реформы. Юлию Тимошенко любит народ и ненавидят все олигархи. То она возглавляет правительство, то сидит в тюрьме...
Сэмпл: http://multi-up.com/1006322
качество: DVB
формат: TS/M2TS
Видео: AVC, аноморф. 720х576, 4:3, 2124 Кбит/сек, 25 fps
Аудио: MPEG Audio, 160 Кбит/сек, 48 КГц, 2 канала

MediaInfo

Общее
Идентификатор : 16 (0x10)
Полное имя : Punch power. Yulia Tymoshenko.ts
Формат : MPEG-TS
Размер файла : 666 Мбайт
Продолжительность : 38 м.
Режим общего битрейта : Переменный
Общий поток : 2404 Кбит/сек
Видео
Идентификатор : 1909 (0x775)
Идентификатор меню : 909 (0x38D)
Формат : AVC
Формат/Информация : Advanced Video Codec
Профиль формата : Main@L3.0
Параметр CABAC формата : Да
Параметр ReFrames формата : 3 кадра
Идентификатор кодека : 27
Продолжительность : 38 м.
Битрейт : 2124 Кбит/сек
Ширина : 720 пикселей
Высота : 576 пикселей
Соотношение сторон : 4:3
Частота кадров : 25,000 кадров/сек
Стандарт вещания : PAL
Цветовое пространство : YUV
Субдискретизация насыщенности : 4:2:0
Битовая глубина : 8 бит
Тип развёртки : Чересстрочная
Порядок развёртки : Верхнее поле первое
Бит/(Пиксели*Кадры) : 0.205
Размер потока : 588 Мбайт (88%)
Основные цвета : BT.601 PAL
Характеристики трансфера : BT.470 System B, BT.470 System G
Коэффициенты матрицы : BT.601
Аудио
Идентификатор : 2909 (0xB5D)
Идентификатор меню : 909 (0x38D)
Формат : MPEG Audio
Версия формата : Version 1
Профиль формата : Layer 2
Идентификатор кодека : 4
Продолжительность : 38 м.
Вид битрейта : Постоянный
Битрейт : 160 Кбит/сек
Каналы : 2 канала
Частота : 48,0 КГц
Метод сжатия : С потерями
Задержка видео : 54 мс.
Размер потока : 44,3 Мбайт (7%)
Язык : std
Язык, дополнительно : Clean effects
Текст
Идентификатор : 32 (0x20)-100
Идентификатор меню : 909 (0x38D)
Формат : Teletext
Меню
Идентификатор : 909 (0x38D)
Идентификатор меню : 909 (0x38D)
Продолжительность : 38 м.
Список : 1909 (0x775) (AVC) / 2909 (0xB5D) (MPEG Audio, std) / 32 (0x20) ()
Язык : / std

Скриншоты

[teatrix.ru].t19244.torrent 
Торрент: Зарегистрирован [ 2016-03-18 12:52 ] · 3D2858445E2AA77059C1E1A5BBDF4C8937126B54

Скачать .torrent

Скачать

13 KB

Статус: проверено
Скачан: 0 раз
Размер: 666 MB
terms.php



Быстрый ответ

Имя:

      
Для отправки сообщений необходимо включить JavaScript
Показать сообщения:    

Текущее время: 05-Дек 21:38

Часовой пояс: UTC + 3


Вы можете начинать темы
Вы можете отвечать на сообщения
Вы не можете редактировать свои сообщения
Вы не можете удалять свои сообщения
Вы не можете голосовать в опросах
Вы не можете прикреплять файлы к сообщениям
Вы можете скачивать файлы