(Classical) [LP] [24/48] В. А. Моцарт/W. A. Mozart - Requiem. in D Minor, KV 626 (The New York Philarmonic Orchestra - Conductor Bruno Walter) - 1980, FLAC (image+.cue)


Статистика раздачи [Обновить пиров]
Размер:  310 MB   |    Зарегистрирован:  8 месяцев 21 день   |    Скачан:  0 раз

Полного источника не было: Никогда

Личеров:  3  [  0 KB/s  ]   Подробная статистика пиров
 
   
 
 
 

[Цитировать]

Из Сокровищницы Мирового Исполнительского Искусства: В. А. Моцарт - Requiem (The New York Philarmonic Orchestra - Conductor Bruno Walter)
Жанр: Classical
Носитель: LP
Год выпуска: 1980
Лейбл: Melodya
Страна-производитель: USSR
Аудио кодек: FLAC
Тип рипа: image+.cue
Формат записи: 32/192
Формат раздачи: 24/48
Продолжительность: 53.46 min
Треклист:
Side one:
01.Requiem aeterman.Kyrie
02.Dies irae
03.Tuba mirum
04.Rex tremendae
05.Recordare
06.Confutatis
07.Lacrimosa
Side two:
08.Domine Jesu
09.Hostias
10.Sanectus
11.Benedictus
12.Agnus Dei. Lux aeterna
Irmgard Seefried, soprano
Jemie Tourel, mezzo-soprano
Leopold Simoneau, tenor
William Warfield, bass
The Westminster Choir Choral conductor John Finley Williamson
The New York Philarmonic Orchestra
Archives Recording
Itestorer:N.Terpugova.Editor:P.Grunberg
Designer: B.Belov
Источник оцифровки: автором раздачи
Код класса состояния винила: NM
Устройство воспроизведения: Электроника ЭП 017С
Головка звукоснимателя: Audio-Technica AT95
Предварительный усилитель: Бриг-001
АЦП: VIA HD audio device
Программа-оцифровщик: Izotope RX III Advanced
Обработка: Manual

Спектр+АЧХ+Уровень записи


DR=13

foobar2000 1.1.10 / Dynamic Range Meter 1.1.1
log date: 2014-10-15 18:43:44
--------------------------------------------------------------------------------
Analyzed: W.A.Mozart / Requiem
--------------------------------------------------------------------------------
DR Peak RMS Duration Track
--------------------------------------------------------------------------------
DR14 0.00 dB -18.54 dB 27:52 ?-Bruno Walter - A
DR12 -0.01 dB -16.06 dB 25:54 ?-Bruno Walter - B
--------------------------------------------------------------------------------
Number of tracks: 2
Official DR value: DR13
Samplerate: 48000 Hz
Channels: 1
Bits per sample: 24
Bitrate: 791 kbps
Codec: FLAC
================================================================================

Back & Inner & Disc





новый .Cue

REM GENRE Classical
REM DATE 1980
PERFORMER "The New York Philarmonic Orchestra - Conductor Bruno Walter"
TITLE "Requiem"
FILE "Bruno Walter - A.flac" WAVE
TRACK 01 AUDIO
TITLE "Requiem aeterman.Kyrie"
PERFORMER "W.A.Mozart"
INDEX 01 00:00:00
TRACK 02 AUDIO
TITLE "Dies irae"
PERFORMER "W.A.Mozart"
INDEX 01 08:03:63
TRACK 03 AUDIO
TITLE "Tuba mirum"
PERFORMER "W.A.Mozart"
INDEX 01 09:52:07
TRACK 04 AUDIO
TITLE "Rex tremendae"
PERFORMER "W.A.Mozart"
INDEX 01 13:52:38
TRACK 05 AUDIO
TITLE "Recordare"
PERFORMER "W.A.Mozart"
INDEX 01 16:06:71
TRACK 06 AUDIO
TITLE "Confutatis"
PERFORMER "W.A.Mozart"
INDEX 01 22:15:48
TRACK 07 AUDIO
TITLE "Lacrimosa"
PERFORMER "W.A.Mozart"
INDEX 01 24:55:46
FILE "Bruno Walter - B.flac" WAVE
TRACK 08 AUDIO
TITLE "Domine Jesu"
PERFORMER "W.A.Mozart"
INDEX 01 00:00:00
TRACK 09 AUDIO
TITLE "Hostias"
PERFORMER "W.A.Mozart"
INDEX 01 04:36:29
TRACK 10 AUDIO
TITLE "Sanectus"
PERFORMER "W.A.Mozart"
INDEX 01 09:32:53
TRACK 11 AUDIO
TITLE "Benedictus"
PERFORMER "W.A.Mozart"
INDEX 01 11:15:08
TRACK 12 AUDIO
TITLE "Agnus Dei. Lux aeterna"
PERFORMER "W.A.Mozart"
INDEX 01 16:39:50
[teatrix.ru].t19245.torrent 
Торрент: Зарегистрирован [ 2016-03-18 12:52 ] · D5A36EEF9CB80419CBE3FCC561C167D8BB2EF50A

Скачать .torrent

Скачать

13 KB

Статус: проверено
Скачан: 0 раз
Размер: 310 MB
terms.php



Быстрый ответ

Имя:

      
Для отправки сообщений необходимо включить JavaScript
Показать сообщения:    

Текущее время: 09-Дек 04:56

Часовой пояс: UTC + 3


Вы можете начинать темы
Вы можете отвечать на сообщения
Вы не можете редактировать свои сообщения
Вы не можете удалять свои сообщения
Вы не можете голосовать в опросах
Вы не можете прикреплять файлы к сообщениям
Вы можете скачивать файлы