Премьера. "К 200-летию М. Ю. Лермонтова. "Ещё минута, и я упал…" (Ольга Кушаковская) [15/10/2014, Биографический фильм, DVB]


Статистика раздачи [Обновить пиров]
Размер:  772 MB   |    Зарегистрирован:  10 месяцев 3 дня   |    Скачан:  1 раз

Полного источника не было: 28 дней

Личеров:  3  [  0 KB/s  ]   Подробная статистика пиров
 
   
 
 
 

[Цитировать]

Премьера. "К 200-летию М. Ю. Лермонтова. "Ещё минута, и я упал…"
Дата/Год выпуска: 15/10/2014
Страна: Россия
Жанр: Биографический фильм
Продолжительность: 00:52:00
Перевод: Не требуется
Русские субтитры: нет
Режиссер: Ольга Кушаковская
Телеканал: Телекомпания "Останкино"
Описание: Недолгая жизнь Михаила Юрьевича Лермонтова оставила нам множество тайн и загадочных мистических совпадений. Но больше всего вопросов вызывает его трагическая гибель.
Авторы фильма проводят собственное расследование обстоятельств той роковой дуэли. Что стало истинной причиной поединка? Нелепая ссора, политические интриги или честь дамы?
Известно, что поэт был дружен с семьей своего будущего убийцы Мартынова, ухаживал за тремя его сестрами. Авторы фильма отыскали потомков Николая Мартынова, которые рассказали свою версию причин дуэли. По мнению Мартыновых, их предок застрелил Лермонтова, желая отомстить за поруганную честь одной из сестер. Но которой? Авторы фильма делают сенсационные выводы.
В советские годы многие исследователи творчества поэта утверждали, что причина дуэли – политическая. Ведь неслучайно Николай Первый несколько раз высылал поэта в "горячие точки". Может, Лермонтов погиб от пули третьего стрелка, нанятого для устранения поэта и не замеченного участниками поединка? В фильме с помощью экспертов проводится уникальный эксперимент, который полностью опровергает эту версию.
Авторы картины нашли немало сенсационных материалов, которые будут интересны зрителям.
Автор сценария: Александр Колпаков
Продюсеры: Сергей Медведев, Олег Вольнов
Сэмпл: http://sendfile.su/1035554
качество: DVB
формат: TS/M2TS
Видео: AVC, аноморф. 720х576, 16:9, 1805 Кбит/сек, 25 fps
Аудио: MPEG Audio, 160 Кбит/сек, 48 КГц, 2 канала

MediaInfo

Общее
Идентификатор : 16 (0x10)
Полное имя : Mikhail Lermontov. Another minute, I fell down ....ts
Формат : MPEG-TS
Размер файла : 772 Мбайт
Продолжительность : 52 м.
Режим общего битрейта : Переменный
Общий поток : 2069 Кбит/сек
Видео
Идентификатор : 1414 (0x586)
Идентификатор меню : 414 (0x19E)
Формат : AVC
Формат/Информация : Advanced Video Codec
Профиль формата : Main@L3.0
Параметр CABAC формата : Да
Параметр ReFrames формата : 3 кадра
Идентификатор кодека : 27
Продолжительность : 52 м.
Битрейт : 1805 Кбит/сек
Ширина : 720 пикселей
Высота : 576 пикселей
Соотношение сторон : 16:9
Частота кадров : 25,000 кадров/сек
Стандарт вещания : PAL
Цветовое пространство : YUV
Субдискретизация насыщенности : 4:2:0
Битовая глубина : 8 бит
Тип развёртки : Прогрессивная
Бит/(Пиксели*Кадры) : 0.174
Размер потока : 673 Мбайт (87%)
Основные цвета : BT.601 PAL
Характеристики трансфера : BT.470 System B, BT.470 System G
Коэффициенты матрицы : BT.601
Аудио
Идентификатор : 2414 (0x96E)
Идентификатор меню : 414 (0x19E)
Формат : MPEG Audio
Версия формата : Version 1
Профиль формата : Layer 2
Идентификатор кодека : 4
Продолжительность : 52 м.
Вид битрейта : Постоянный
Битрейт : 160 Кбит/сек
Каналы : 2 канала
Частота : 48,0 КГц
Метод сжатия : С потерями
Задержка видео : 135 мс.
Размер потока : 59,7 Мбайт (8%)
Язык : std
Язык, дополнительно : Clean effects

Скриншоты

[teatrix.ru].t19246.torrent 
Торрент: Зарегистрирован [ 2016-03-18 12:52 ] · 141F9D3CFECD0EEC418857FE7857CD0BB303D6F8

Скачать .torrent

Скачать

16 KB

Статус: проверено
Скачан: 1 раз
Размер: 772 MB
terms.php



Быстрый ответ

Имя:

      
Для отправки сообщений необходимо включить JavaScript
Показать сообщения:    

Текущее время: 22-Янв 04:40

Часовой пояс: UTC + 3


Вы можете начинать темы
Вы можете отвечать на сообщения
Вы не можете редактировать свои сообщения
Вы не можете удалять свои сообщения
Вы не можете голосовать в опросах
Вы не можете прикреплять файлы к сообщениям
Вы можете скачивать файлы