(Chamber) Joseph Haydn - Complete string quartets / Собрание струнных квартетов (Buchberger Quartet) - 2009, APE (image+.cue) lossless


 

[Цитировать]

Joseph Haydn - Complete string quartets / Собрание струнных квартетов (Buchberger Quartet) - 2009, APE (image+.cue) lossless
Жанр: Chamber
Страна-производитель диска: EU
Год издания диска: 2009
Издатель (лейбл): Brilliant Classics
Номер по каталогу: 93889
Дата записи: 2002-2008
Аудиокодек: APE
Тип рипа: image+.cue
Битрейт аудио: lossless
Продолжительность: 23ч. 07мин. 33сек.
Источник: собственный рип
сайт-источник/ник/другое: http://www.amazon.com/Complete-String-Quartets-CD-Rom-Box/dp/B002F3BQ08/ref=sr_1_3?ie=UTF8
Наличие сканов в содержимом раздачи: да
Треклист: под спойлером каждого диска
Исполнители: Hubert Buchberger - violon I, Julia Greve - violon II, Joachim Etzel - viola,
Helmut Sohler - cello

Треклисты, логи, .cue CD1-CD12CD 1Треклист

CD 1
String Quartet Op. 1 No. 1 in B flat HOB.III:1
01. presto..........02:34
02. minuet-minuet secondo..........03:55
03. adagio..........04:47
04. minuet..........02:36
05. finale, presto..........02:16
String Quartet Op. 1 No. 2 in E flat HOB.III:2
06. allegro molto..........03:30
07. minuet..........03:34
08. adagio..........04:42
09. minuet..........03:32
10. presto..........02:06
String Quartet Op. 1 No. 3 in D HOB.III:3
11. adagio..........05:00
12. menuet..........02:49
13. scherzo, presto..........01:33
14. menuet..........03:21
15. presto..........01:40
String Quartet Op. 1 No. 4 in G HOB.III:4
16. presto..........03:53
17. minuet..........03:48
18. adagio ma non tanto..........04:24
19. minuet..........03:44
20. finale, presto..........04:00
Time: 67:54

Лог создания рипа

Exact Audio Copy V0.99 prebeta 5 from 4. May 2009
Отчёт EAC об извлечении, выполненном 28. сентября 2014, 1:35
Buchberger Quartet / J.Haydn - Complete String Quartets CD1 93889/1
Дисковод: PIONEER DVD-RW DVRKD08RS Adapter: 1 ID: 0
Режим чтения : Достоверность
Использование точного потока : Да
Отключение кэша аудио : Да
Использование указателей C2 : Нет
Коррекция смещения при чтении : 48
Способность читать области Lead-in и Lead-out : Нет
Заполнение пропущенных сэмплов тишиной : Да
Удаление блоков с тишиной в начале и конце : Нет
При вычислениях CRC использовались нулевые сэмплы : Да
Интерфейс : Встроенный Win32-интерфейс для Win NT/2000
Выходной формат : Внутренние WAV-операции
Формат сэмплов : 44.100 Гц; 16 бит; стерео
TOC извлечённого CD
Трек | Старт | Длительность | Начальный сектор | Конечный сектор
---------------------------------------------------------------------
1 | 0:00.00 | 2:34.19 | 0 | 11568
2 | 2:34.19 | 3:55.74 | 11569 | 29267
3 | 6:30.18 | 4:47.56 | 29268 | 50848
4 | 11:17.74 | 2:36.34 | 50849 | 62582
5 | 13:54.33 | 2:16.21 | 62583 | 72803
6 | 16:10.54 | 3:30.39 | 72804 | 88592
7 | 19:41.18 | 3:34.67 | 88593 | 104709
8 | 23:16.10 | 4:42.09 | 104710 | 125868
9 | 27:58.19 | 3:32.58 | 125869 | 141826
10 | 31:31.02 | 2:06.61 | 141827 | 151337
11 | 33:37.63 | 5:00.34 | 151338 | 173871
12 | 38:38.22 | 2:49.60 | 173872 | 186606
13 | 41:28.07 | 1:33.23 | 186607 | 193604
14 | 43:01.30 | 3:21.00 | 193605 | 208679
15 | 46:22.30 | 1:40.16 | 208680 | 216195
16 | 48:02.46 | 3:53.47 | 216196 | 233717
17 | 51:56.18 | 3:48.40 | 233718 | 250857
18 | 55:44.58 | 4:24.51 | 250858 | 270708
19 | 60:09.34 | 3:44.43 | 270709 | 287551
20 | 63:54.02 | 4:00.38 | 287552 | 305589
Характеристики диапазона извлечения и сообщения об ошибках
Выбранный диапазон
Имя файла E:\Haydn\CD 1\Buchberger Quartet - J.Haydn - Complete String Quartets CD1 93889 1.wav
Пиковый уровень 100.0 %
Качество диапазона 100.0 %
CRC копии 208A8326
Копирование... OK
Ошибок не произошло
AccurateRip: сводка
Трек 1 точность не определена (достоверность 4) [6EF929F1], AccurateRip вернул [C5DB85EA]
Трек 2 точность не определена (достоверность 4) [431B6799], AccurateRip вернул [2E74EF08]
Трек 3 точность не определена (достоверность 4) [B6292242], AccurateRip вернул [AC41FC6E]
Трек 4 точность не определена (достоверность 4) [51F6427C], AccurateRip вернул [10FF775F]
Трек 5 точность не определена (достоверность 4) [FC129962], AccurateRip вернул [F0592047]
Трек 6 точность не определена (достоверность 4) [45D9E15E], AccurateRip вернул [FE913554]
Трек 7 точность не определена (достоверность 4) [3EA73EEB], AccurateRip вернул [8B8103CD]
Трек 8 точность не определена (достоверность 4) [F468A632], AccurateRip вернул [3E9983C3]
Трек 9 точность не определена (достоверность 4) [B9E383C5], AccurateRip вернул [7727C676]
Трек 10 точность не определена (достоверность 4) [F1C8EE41], AccurateRip вернул [509C3907]
Трек 11 точность не определена (достоверность 4) [C48BE1A2], AccurateRip вернул [CB0164B0]
Трек 12 точность не определена (достоверность 4) [E4949265], AccurateRip вернул [C72FA995]
Трек 13 точность не определена (достоверность 4) [51E329EC], AccurateRip вернул [E01C04A0]
Трек 14 точность не определена (достоверность 4) [D886EC94], AccurateRip вернул [EEE50534]
Трек 15 точность не определена (достоверность 4) [E23A7C2C], AccurateRip вернул [E76403BE]
Трек 16 точность не определена (достоверность 4) [843561ED], AccurateRip вернул [8A0C0F85]
Трек 17 точность не определена (достоверность 4) [7E96D47C], AccurateRip вернул [947DEC36]
Трек 18 точность не определена (достоверность 4) [7E9D0210], AccurateRip вернул [E184484C]
Трек 19 точность не определена (достоверность 4) [79E9F92A], AccurateRip вернул [13EC3BE2]
Трек 20 точность не определена (достоверность 4) [D9C8424D], AccurateRip вернул [0EFC40A3]
Ни один трек не прошёл проверки на точность
В вашей базе может быть иной вариант штамповки диска
Конец отчёта

Содержание индексной карты (.CUE)

REM GENRE "Chamber Music"
REM DATE 2007
REM DISCID 370FEA14
REM COMMENT "ExactAudioCopy v0.99pb5"
PERFORMER "Buchberger Quartet"
TITLE "J.Haydn - Complete String Quartets CD1 93889/1"
FILE "Buchberger Quartet - J.Haydn - Complete String Quartets CD1 93889 1.ape" WAVE
TRACK 01 AUDIO
TITLE "String Quartet Op. 1 No. 1 in B flat major, presto"
PERFORMER "Buchberger Quartet"
INDEX 01 00:00:00
TRACK 02 AUDIO
TITLE "String Quartet Op. 1 No. 1 in B flat major, minuet-minuet secondo"
PERFORMER "Buchberger Quartet"
INDEX 01 02:34:19
TRACK 03 AUDIO
TITLE "String Quartet Op. 1 No. 1 in B flat major, adagio"
PERFORMER "Buchberger Quartet"
INDEX 01 06:30:18
TRACK 04 AUDIO
TITLE "String Quartet Op. 1 No. 1 in B flat major, minuet"
PERFORMER "Buchberger Quartet"
INDEX 01 11:17:74
TRACK 05 AUDIO
TITLE "String Quartet Op. 1 No. 1 in B flat major, finale, presto"
PERFORMER "Buchberger Quartet"
INDEX 01 13:54:33
TRACK 06 AUDIO
TITLE "String Quartet Op. 1 No. 2 in E flat major, allegro molto"
PERFORMER "Buchberger Quartet"
INDEX 00 15:59:54
INDEX 01 16:10:54
TRACK 07 AUDIO
TITLE "String Quartet Op. 1 No. 2 in E flat major, minuet"
PERFORMER "Buchberger Quartet"
INDEX 01 19:41:18
TRACK 08 AUDIO
TITLE "String Quartet Op. 1 No. 2 in E flat major, adagio"
PERFORMER "Buchberger Quartet"
INDEX 01 23:16:10
TRACK 09 AUDIO
TITLE "String Quartet Op. 1 No. 2 in E flat major, minuet"
PERFORMER "Buchberger Quartet"
INDEX 01 27:58:19
TRACK 10 AUDIO
TITLE "String Quartet Op. 1 No. 2 in E flat major, finale, presto"
PERFORMER "Buchberger Quartet"
INDEX 01 31:31:02
TRACK 11 AUDIO
TITLE "String Quartet Op. 1 No. 3 in D major, adagio"
PERFORMER "Buchberger Quartet"
INDEX 00 33:25:46
INDEX 01 33:37:63
TRACK 12 AUDIO
TITLE "String Quartet Op. 1 No. 3 in D major, menuet"
PERFORMER "Buchberger Quartet"
INDEX 01 38:38:22
TRACK 13 AUDIO
TITLE "String Quartet Op. 1 No. 3 in D major, scherzo, presto"
PERFORMER "Buchberger Quartet"
INDEX 01 41:28:07
TRACK 14 AUDIO
TITLE "String Quartet Op. 1 No. 3 in D major, menuet"
PERFORMER "Buchberger Quartet"
INDEX 01 43:01:30
TRACK 15 AUDIO
TITLE "String Quartet Op. 1 No. 3 in D major, presto"
PERFORMER "Buchberger Quartet"
INDEX 01 46:22:30
TRACK 16 AUDIO
TITLE "String Quartet Op. 1 No. 4 in G major, presto"
PERFORMER "Buchberger Quartet"
INDEX 00 47:50:11
INDEX 01 48:02:46
TRACK 17 AUDIO
TITLE "String Quartet Op. 1 No. 4 in G major, minuet"
PERFORMER "Buchberger Quartet"
INDEX 01 51:56:18
TRACK 18 AUDIO
TITLE "String Quartet Op. 1 No. 4 in G major, adagio ma non tanto"
PERFORMER "Buchberger Quartet"
INDEX 01 55:44:58
TRACK 19 AUDIO
TITLE "String Quartet Op. 1 No. 4 in G major, minuet"
PERFORMER "Buchberger Quartet"
INDEX 01 60:09:34
TRACK 20 AUDIO
TITLE "String Quartet Op. 1 No. 4 in G major, finale, presto"
PERFORMER "Buchberger Quartet"
INDEX 01 63:54:02

CD 2Треклист

CD 2
String Quartet Op. 1 No. 0 in E flat HOB.II:6
01. presto..........02:24
02. menuet..........04:16
03. adagio..........05:11
04. menuet..........04:09
05. presto..........02:24
String Quartet Op. 1 No. 6 in C HOB.III:6
06. presto assai..........01:53
07. minuet..........03:45
08. adagio..........06:19
09. minuet..........04:31
10. finale, allegro..........02:22
String Quartet Op. 2 No. 1 in A HOB.III:7
11. allegro..........03:42
12. menuet..........03:18
13. adagio..........05:05
14. menuet..........02:52
15. allegro molto..........02:20
Time: 54:37

Лог создания рипа

Exact Audio Copy V0.99 prebeta 5 from 4. May 2009
Отчёт EAC об извлечении, выполненном 28. сентября 2014, 1:10
Buchberger Quartet / J.Haydn - Complete String Quartets CD2 93889/2
Дисковод: PIONEER DVD-RW DVRKD08RS Adapter: 1 ID: 0
Режим чтения : Достоверность
Использование точного потока : Да
Отключение кэша аудио : Да
Использование указателей C2 : Нет
Коррекция смещения при чтении : 48
Способность читать области Lead-in и Lead-out : Нет
Заполнение пропущенных сэмплов тишиной : Да
Удаление блоков с тишиной в начале и конце : Нет
При вычислениях CRC использовались нулевые сэмплы : Да
Интерфейс : Встроенный Win32-интерфейс для Win NT/2000
Выходной формат : Внутренние WAV-операции
Формат сэмплов : 44.100 Гц; 16 бит; стерео
TOC извлечённого CD
Трек | Старт | Длительность | Начальный сектор | Конечный сектор
---------------------------------------------------------------------
1 | 0:00.00 | 2:24.14 | 0 | 10813
2 | 2:24.14 | 4:16.47 | 10814 | 30060
3 | 6:40.61 | 5:11.15 | 30061 | 53400
4 | 11:52.01 | 4:09.68 | 53401 | 72143
5 | 16:01.69 | 2:24.37 | 72144 | 82980
6 | 18:26.31 | 1:53.65 | 82981 | 91520
7 | 20:20.21 | 3:45.06 | 91521 | 108401
8 | 24:05.27 | 6:19.17 | 108402 | 136843
9 | 30:24.44 | 4:31.62 | 136844 | 157230
10 | 34:56.31 | 2:22.26 | 157231 | 167906
11 | 37:18.57 | 3:42.04 | 167907 | 184560
12 | 41:00.61 | 3:18.14 | 184561 | 199424
13 | 44:19.00 | 5:05.18 | 199425 | 222317
14 | 49:24.18 | 2:52.26 | 222318 | 235243
15 | 52:16.44 | 2:20.49 | 235244 | 245792
Характеристики диапазона извлечения и сообщения об ошибках
Выбранный диапазон
Имя файла E:\Haydn\CD 2\Buchberger Quartet - J.Haydn - Complete String Quartets CD2 93889 2.wav
Пиковый уровень 96.6 %
Качество диапазона 100.0 %
CRC копии AB47666D
Копирование... OK
Ошибок не произошло
AccurateRip: сводка
Трек 1 точность не определена (достоверность 4) [2E864AF1], AccurateRip вернул [CF1D705F]
Трек 2 точность не определена (достоверность 4) [FB0B528E], AccurateRip вернул [6FD9F668]
Трек 3 точность не определена (достоверность 4) [974444A8], AccurateRip вернул [7E88131D]
Трек 4 точность не определена (достоверность 4) [F07D6B76], AccurateRip вернул [B5B0B78A]
Трек 5 точность не определена (достоверность 4) [1B482E16], AccurateRip вернул [D3061D7E]
Трек 6 точность не определена (достоверность 4) [09EC2DC4], AccurateRip вернул [D2F0202F]
Трек 7 точность не определена (достоверность 4) [BBD2491B], AccurateRip вернул [0BB75803]
Трек 8 точность не определена (достоверность 4) [5B19C3C1], AccurateRip вернул [36345D4A]
Трек 9 точность не определена (достоверность 4) [3A526F09], AccurateRip вернул [375F4A48]
Трек 10 точность не определена (достоверность 4) [62E2E34E], AccurateRip вернул [9DFDD3D8]
Трек 11 точность не определена (достоверность 4) [06423671], AccurateRip вернул [EEA9D469]
Трек 12 точность не определена (достоверность 4) [4F0202A6], AccurateRip вернул [AF54C43F]
Трек 13 точность не определена (достоверность 4) [DF0F72F1], AccurateRip вернул [440E0A36]
Трек 14 точность не определена (достоверность 4) [CF54FCF6], AccurateRip вернул [5D7B477E]
Трек 15 точность не определена (достоверность 4) [3E95936E], AccurateRip вернул [A64B9253]
Ни один трек не прошёл проверки на точность
В вашей базе может быть иной вариант штамповки диска
Конец отчёта

Содержание индексной карты (.CUE)

REM GENRE "Chamber Music"
REM DATE 2007
REM DISCID C10CCD0F
REM COMMENT "ExactAudioCopy v0.99pb5"
PERFORMER "Buchberger Quartet"
TITLE "J.Haydn - Complete String Quartets CD2 93889/2"
FILE "Buchberger Quartet - J.Haydn - Complete String Quartets CD2 93889 2.ape" WAVE
TRACK 01 AUDIO
TITLE "String Quartet Op. 1 No. 0 in E flat major, presto"
PERFORMER "Buchberger Quartet"
INDEX 01 00:00:00
TRACK 02 AUDIO
TITLE "String Quartet Op. 1 No. 0 in E flat major, menuet"
PERFORMER "Buchberger Quartet"
INDEX 01 02:24:14
TRACK 03 AUDIO
TITLE "String Quartet Op. 1 No. 0 in E flat major, adagio"
PERFORMER "Buchberger Quartet"
INDEX 01 06:40:61
TRACK 04 AUDIO
TITLE "String Quartet Op. 1 No. 0 in E flat major, menuet"
PERFORMER "Buchberger Quartet"
INDEX 01 11:52:01
TRACK 05 AUDIO
TITLE "String Quartet Op. 1 No. 0 in E flat major, presto"
PERFORMER "Buchberger Quartet"
INDEX 01 16:01:69
TRACK 06 AUDIO
TITLE "String Quartet Op. 1 No. 6 in C major, presto assai"
PERFORMER "Buchberger Quartet"
INDEX 00 18:14:51
INDEX 01 18:26:31
TRACK 07 AUDIO
TITLE "String Quartet Op. 1 No. 6 in C major, minuet"
PERFORMER "Buchberger Quartet"
INDEX 01 20:20:21
TRACK 08 AUDIO
TITLE "String Quartet Op. 1 No. 6 in C major, adagio"
PERFORMER "Buchberger Quartet"
INDEX 01 24:05:27
TRACK 09 AUDIO
TITLE "String Quartet Op. 1 No. 6 in C major, minuet"
PERFORMER "Buchberger Quartet"
INDEX 01 30:24:44
TRACK 10 AUDIO
TITLE "String Quartet Op. 1 No. 6 in C major, finale, allegro"
PERFORMER "Buchberger Quartet"
INDEX 01 34:56:31
TRACK 11 AUDIO
TITLE "String Quartet Op. 2 No. 1 in A major, allegro"
PERFORMER "Buchberger Quartet"
INDEX 00 37:07:69
INDEX 01 37:18:57
TRACK 12 AUDIO
TITLE "String Quartet Op. 2 No. 1 in A major, menuet"
PERFORMER "Buchberger Quartet"
INDEX 01 41:00:61
TRACK 13 AUDIO
TITLE "String Quartet Op. 2 No. 1 in A major, adagio"
PERFORMER "Buchberger Quartet"
INDEX 01 44:19:00
TRACK 14 AUDIO
TITLE "String Quartet Op. 2 No. 1 in A major, menuet"
PERFORMER "Buchberger Quartet"
INDEX 01 49:24:18
TRACK 15 AUDIO
TITLE "String Quartet Op. 2 No. 1 in A major, allegro molto"
PERFORMER "Buchberger Quartet"
INDEX 01 52:16:44

CD 3Треклист

CD 3
String Quartet Op. No. 2 in E HOB.III:8
01. allegro molto..........03:22
02. menuet..........03:27
03. adagio..........05:56
04. menuet..........03:11
05. finale, presto..........03:13
String Quartet Op. 2 No 4 in F HOB.III:10
06. presto..........03:51
07. menuet..........04:10
08. adagio..........05:03
09. menuet, allegretto..........02:05
10. finale, allegro..........02:23
String Quartet Op. 2 No. 6 in B HOB.III:12
11. adagio..........06:19
12. menuet..........03:35
13. scherzo, presto..........02:03
14. menuet..........02:37
15. presto..........02:24
Time: 53:47

Лог создания рипа

Exact Audio Copy V0.99 prebeta 5 from 4. May 2009
Отчёт EAC об извлечении, выполненном 28. сентября 2014, 12:05
Buchberger Quartet / J.Haydn - Complete String Quartets CD3 93889/3
Дисковод: PIONEER DVD-RW DVRKD08RS Adapter: 1 ID: 0
Режим чтения : Достоверность
Использование точного потока : Да
Отключение кэша аудио : Да
Использование указателей C2 : Нет
Коррекция смещения при чтении : 48
Способность читать области Lead-in и Lead-out : Нет
Заполнение пропущенных сэмплов тишиной : Да
Удаление блоков с тишиной в начале и конце : Нет
При вычислениях CRC использовались нулевые сэмплы : Да
Интерфейс : Встроенный Win32-интерфейс для Win NT/2000
Выходной формат : Внутренние WAV-операции
Формат сэмплов : 44.100 Гц; 16 бит; стерео
TOC извлечённого CD
Трек | Старт | Длительность | Начальный сектор | Конечный сектор
---------------------------------------------------------------------
1 | 0:00.00 | 3:22.60 | 0 | 15209
2 | 3:22.60 | 3:27.39 | 15210 | 30773
3 | 6:50.24 | 5:56.42 | 30774 | 57515
4 | 12:46.66 | 3:11.65 | 57516 | 71905
5 | 15:58.56 | 3:13.28 | 71906 | 86408
6 | 19:12.09 | 3:51.30 | 86409 | 103763
7 | 23:03.39 | 4:10.47 | 103764 | 122560
8 | 27:14.11 | 5:03.52 | 122561 | 145337
9 | 32:17.63 | 2:05.02 | 145338 | 154714
10 | 34:22.65 | 2:23.70 | 154715 | 165509
11 | 36:46.60 | 6:19.24 | 165510 | 193958
12 | 43:06.09 | 3:35.60 | 193959 | 210143
13 | 46:41.69 | 2:03.23 | 210144 | 219391
14 | 48:45.17 | 2:37.32 | 219392 | 231198
15 | 51:22.49 | 2:24.65 | 231199 | 242063
Характеристики диапазона извлечения и сообщения об ошибках
Выбранный диапазон
Имя файла E:\Haydn\CD 3\Buchberger Quartet - J.Haydn - Complete String Quartets CD3 93889 3.wav
Пиковый уровень 100.0 %
Качество диапазона 100.0 %
CRC копии 52AB1AC1
Копирование... OK
Ошибок не произошло
AccurateRip: сводка
Трек 1 точность не определена (достоверность 4) [2108962E], AccurateRip вернул [054840EF]
Трек 2 точность не определена (достоверность 4) [2D10C217], AccurateRip вернул [773F23DB]
Трек 3 точность не определена (достоверность 4) [F3AFDB6D], AccurateRip вернул [6238ED10]
Трек 4 точность не определена (достоверность 4) [BD39C5BD], AccurateRip вернул [8BED7E26]
Трек 5 точность не определена (достоверность 4) [B9017DA8], AccurateRip вернул [E81CFA31]
Трек 6 точность не определена (достоверность 4) [404B92FF], AccurateRip вернул [D47E44FF]
Трек 7 точность не определена (достоверность 4) [EA5D2111], AccurateRip вернул [A1DFD972]
Трек 8 точность не определена (достоверность 4) [28EBD2DB], AccurateRip вернул [5ACEEECD]
Трек 9 точность не определена (достоверность 4) [8D098290], AccurateRip вернул [F920E445]
Трек 10 точность не определена (достоверность 4) [53661465], AccurateRip вернул [3E283644]
Трек 11 точность не определена (достоверность 4) [BD6E5E1E], AccurateRip вернул [391312F9]
Трек 12 точность не определена (достоверность 4) [F5C14634], AccurateRip вернул [0C8914A8]
Трек 13 точность не определена (достоверность 4) [F8A67EC6], AccurateRip вернул [123A0A70]
Трек 14 точность не определена (достоверность 4) [5EB0AB32], AccurateRip вернул [13C3C9EA]
Трек 15 точность не определена (достоверность 4) [A67A6AB4], AccurateRip вернул [9CCF255E]
Ни один трек не прошёл проверки на точность
В вашей базе может быть иной вариант штамповки диска
Конец отчёта

Содержание индексной карты (.CUE)

REM GENRE "Chamber Music"
REM DATE 2005
REM DISCID D40C9B0F
REM COMMENT "ExactAudioCopy v0.99pb5"
PERFORMER "Buchberger Quartet"
TITLE "J.Haydn - Complete String Quartets CD3 93889/3"
FILE "Buchberger Quartet - J.Haydn - Complete String Quartets CD3 93889 3.ape" WAVE
TRACK 01 AUDIO
TITLE "String Quartet Op. No. 2 in E major, allegro molto"
PERFORMER "Buchberger Quartet"
INDEX 01 00:00:00
TRACK 02 AUDIO
TITLE "String Quartet Op. No. 2 in E major, menuet"
PERFORMER "Buchberger Quartet"
INDEX 01 03:22:60
TRACK 03 AUDIO
TITLE "String Quartet Op. No. 2 in E major, adagio"
PERFORMER "Buchberger Quartet"
INDEX 01 06:50:24
TRACK 04 AUDIO
TITLE "String Quartet Op. No. 2 in E major, menuet"
PERFORMER "Buchberger Quartet"
INDEX 01 12:46:66
TRACK 05 AUDIO
TITLE "String Quartet Op. No. 2 in E major, finale, presto"
PERFORMER "Buchberger Quartet"
INDEX 01 15:58:56
TRACK 06 AUDIO
TITLE "String Quartet Op. 2 No 4 in F major, presto"
PERFORMER "Buchberger Quartet"
INDEX 01 19:12:09
TRACK 07 AUDIO
TITLE "String Quartet Op. 2 No 4 in F major, menuet"
PERFORMER "Buchberger Quartet"
INDEX 01 23:03:39
TRACK 08 AUDIO
TITLE "String Quartet Op. 2 No 4 in F major, adagio"
PERFORMER "Buchberger Quartet"
INDEX 01 27:14:11
TRACK 09 AUDIO
TITLE "String Quartet Op. 2 No 4 in F major, menuet, allegretto"
PERFORMER "Buchberger Quartet"
INDEX 01 32:17:63
TRACK 10 AUDIO
TITLE "String Quartet Op. 2 No 4 in F major, finale, allegro"
PERFORMER "Buchberger Quartet"
INDEX 01 34:22:65
TRACK 11 AUDIO
TITLE "String Quartet Op. 2 No. 6 in B flat major, adagio"
PERFORMER "Buchberger Quartet"
INDEX 01 36:46:60
TRACK 12 AUDIO
TITLE "String Quartet Op. 2 No. 6 in B flat major, menuet"
PERFORMER "Buchberger Quartet"
INDEX 01 43:06:09
TRACK 13 AUDIO
TITLE "String Quartet Op. 2 No. 6 in B flat major, scherzo, presto"
PERFORMER "Buchberger Quartet"
INDEX 01 46:41:69
TRACK 14 AUDIO
TITLE "String Quartet Op. 2 No. 6 in B flat major, menuet"
PERFORMER "Buchberger Quartet"
INDEX 01 48:45:17
TRACK 15 AUDIO
TITLE "String Quartet Op. 2 No. 6 in B flat major, presto"
PERFORMER "Buchberger Quartet"
INDEX 01 51:22:49

CD 4Треклист

CD 4
String Quartet Op. 9 No. 4 in D minor HOB.III:22
01. moderato..........06:38
02. menuetto-trio..........04:39
03. adagio cantabile..........05:17
04. finale presto..........04:05
String Quartet Op. 9 No. 1,in C HOB. III:19
05. moderato..........05:27
06. menuett, uno poco allegretto-trio..........03:24
07. adagio..........06:57
08. finale, presto..........02:52
String Quartet Op. 9 No. 3 in G HOB.III:21
09. allegro molto..........04:20
10. menuetto, allegretto-trio..........03:03
11. largo..........05:55
12. finale, presto..........03:04
Time: 55:46

Лог создания рипа

Exact Audio Copy V0.99 prebeta 5 from 4. May 2009
Отчёт EAC об извлечении, выполненном 28. сентября 2014, 12:41
Buchberger Quartet / J.Haydn - Complete String Quartets CD4 93889/4
Дисковод: PIONEER DVD-RW DVRKD08RS Adapter: 1 ID: 0
Режим чтения : Достоверность
Использование точного потока : Да
Отключение кэша аудио : Да
Использование указателей C2 : Нет
Коррекция смещения при чтении : 48
Способность читать области Lead-in и Lead-out : Нет
Заполнение пропущенных сэмплов тишиной : Да
Удаление блоков с тишиной в начале и конце : Нет
При вычислениях CRC использовались нулевые сэмплы : Да
Интерфейс : Встроенный Win32-интерфейс для Win NT/2000
Выходной формат : Внутренние WAV-операции
Формат сэмплов : 44.100 Гц; 16 бит; стерео
TOC извлечённого CD
Трек | Старт | Длительность | Начальный сектор | Конечный сектор
---------------------------------------------------------------------
1 | 0:00.00 | 6:38.37 | 0 | 29886
2 | 6:38.37 | 4:39.45 | 29887 | 50856
3 | 11:18.07 | 5:17.48 | 50857 | 74679
4 | 16:35.55 | 4:05.15 | 74680 | 93069
5 | 20:40.70 | 5:27.25 | 93070 | 117619
6 | 26:08.20 | 3:24.04 | 117620 | 132923
7 | 29:32.24 | 6:57.40 | 132924 | 164238
8 | 36:29.64 | 2:52.31 | 164239 | 177169
9 | 39:22.20 | 4:20.48 | 177170 | 196717
10 | 43:42.68 | 3:03.29 | 196718 | 210471
11 | 46:46.22 | 5:55.19 | 210472 | 237115
12 | 52:41.41 | 3:04.73 | 237116 | 250988
Характеристики диапазона извлечения и сообщения об ошибках
Выбранный диапазон
Имя файла E:\Haydn\CD 4\Buchberger Quartet - J.Haydn - Complete String Quartets CD4 93889 4.wav
Пиковый уровень 81.2 %
Качество диапазона 100.0 %
CRC копии 9866FCA3
Копирование... OK
Ошибок не произошло
AccurateRip: сводка
Трек 1 точность не определена (достоверность 4) [BAD9F71F], AccurateRip вернул [2E323A84]
Трек 2 точность не определена (достоверность 4) [9BE4456E], AccurateRip вернул [C28601F1]
Трек 3 точность не определена (достоверность 4) [8B83AB37], AccurateRip вернул [B42A9FFF]
Трек 4 точность не определена (достоверность 4) [4666040C], AccurateRip вернул [57925E15]
Трек 5 точность не определена (достоверность 4) [59D850A5], AccurateRip вернул [47B7B90F]
Трек 6 точность не определена (достоверность 4) [5E611B66], AccurateRip вернул [19A27DBF]
Трек 7 точность не определена (достоверность 4) [75E2213B], AccurateRip вернул [4F386C1D]
Трек 8 точность не определена (достоверность 4) [E2E9F0D2], AccurateRip вернул [79F76BCE]
Трек 9 точность не определена (достоверность 4) [347B0521], AccurateRip вернул [43247AA8]
Трек 10 точность не определена (достоверность 4) [8593E883], AccurateRip вернул [8DD2C51F]
Трек 11 точность не определена (достоверность 4) [0391EC9B], AccurateRip вернул [3812A904]
Трек 12 точность не определена (достоверность 4) [5CD11235], AccurateRip вернул [C50F7B55]
Ни один трек не прошёл проверки на точность
В вашей базе может быть иной вариант штамповки диска
Конец отчёта

Содержание индексной карты (.CUE)

REM GENRE "Chamber Music"
REM DATE 2004
REM DISCID 9F0D120C
REM COMMENT "ExactAudioCopy v0.99pb5"
PERFORMER "Buchberger Quartet"
TITLE "J.Haydn - Complete String Quartets CD4 93889/4"
FILE "Buchberger Quartet - J.Haydn - Complete String Quartets CD4 93889 4.ape" WAVE
TRACK 01 AUDIO
TITLE "String Quartet in D minor Op. 9 No. 4, moderato"
PERFORMER "Buchberger Quartet"
INDEX 01 00:00:00
TRACK 02 AUDIO
TITLE "String Quartet in D minor Op. 9 No. 4, menuetto-trio"
PERFORMER "Buchberger Quartet"
INDEX 00 06:36:15
INDEX 01 06:38:37
TRACK 03 AUDIO
TITLE "String Quartet in D minor Op. 9 No. 4, adagio cantabile"
PERFORMER "Buchberger Quartet"
INDEX 00 11:14:19
INDEX 01 11:18:07
TRACK 04 AUDIO
TITLE "String Quartet in D minor Op. 9 No. 4, finale presto"
PERFORMER "Buchberger Quartet"
INDEX 01 16:35:55
TRACK 05 AUDIO
TITLE "String Quartet in C major Op. 9 No. 1, moderato"
PERFORMER "Buchberger Quartet"
INDEX 00 20:27:23
INDEX 01 20:40:70
TRACK 06 AUDIO
TITLE "String Quartet in C major Op. 9 No. 1, menuett, uno poco allegretto-trio"
PERFORMER "Buchberger Quartet"
INDEX 00 26:06:09
INDEX 01 26:08:20
TRACK 07 AUDIO
TITLE "String Quartet in C major Op. 9 No. 1, adagio"
PERFORMER "Buchberger Quartet"
INDEX 00 29:29:45
INDEX 01 29:32:24
TRACK 08 AUDIO
TITLE "String Quartet in C major Op. 9 No. 1, finale, presto"
PERFORMER "Buchberger Quartet"
INDEX 01 36:29:64
TRACK 09 AUDIO
TITLE "String Quartet in G major Op. 9 No. 3, allegro molto"
PERFORMER "Buchberger Quartet"
INDEX 00 39:09:56
INDEX 01 39:22:20
TRACK 10 AUDIO
TITLE "String Quartet in G major Op. 9 No. 3, menuetto, allegretto-trio"
PERFORMER "Buchberger Quartet"
INDEX 00 43:39:67
INDEX 01 43:42:68
TRACK 11 AUDIO
TITLE "String Quartet in G major Op. 9 No. 3, largo"
PERFORMER "Buchberger Quartet"
INDEX 00 46:44:25
INDEX 01 46:46:22
TRACK 12 AUDIO
TITLE "String Quartet in G major Op. 9 No. 3, finale, presto"
PERFORMER "Buchberger Quartet"
INDEX 00 52:39:35
INDEX 01 52:41:41

CD 5Треклист

CD 5
String Quartet Op. 9 No. 2 in E flat HOB.III:20
01. moderato..........06:06
02. menuetto-trio..........02:35
03. adagio..........05:18
04. finale, allegro molto..........03:28
String Quartet Op. 9 No. 5 in B flat HOB.III:23
05. poco adagio..........06:53
06. menuetto, allegro-trio..........02:46
07. largo cantabile..........06:49
08. finale, presto..........05:17
String Quartet Op. 9 No. 6 in A HOB.III:24
09. presto..........03:47
10. menuetto-trio..........04:17
11. adagio..........04:18
12. finale, presto..........01:29
Time: 53:07

Лог создания рипа

Exact Audio Copy V0.99 prebeta 5 from 4. May 2009
Отчёт EAC об извлечении, выполненном 28. сентября 2014, 12:59
Buchberger Quartet / J.Haydn - Complete String Quartets CD5 93889/5
Дисковод: PIONEER DVD-RW DVRKD08RS Adapter: 1 ID: 0
Режим чтения : Достоверность
Использование точного потока : Да
Отключение кэша аудио : Да
Использование указателей C2 : Нет
Коррекция смещения при чтении : 48
Способность читать области Lead-in и Lead-out : Нет
Заполнение пропущенных сэмплов тишиной : Да
Удаление блоков с тишиной в начале и конце : Нет
При вычислениях CRC использовались нулевые сэмплы : Да
Интерфейс : Встроенный Win32-интерфейс для Win NT/2000
Выходной формат : Внутренние WAV-операции
Формат сэмплов : 44.100 Гц; 16 бит; стерео
TOC извлечённого CD
Трек | Старт | Длительность | Начальный сектор | Конечный сектор
---------------------------------------------------------------------
1 | 0:00.00 | 6:06.12 | 0 | 27461
2 | 6:06.12 | 2:35.02 | 27462 | 39088
3 | 8:41.14 | 5:18.54 | 39089 | 62992
4 | 13:59.68 | 3:28.12 | 62993 | 78604
5 | 17:28.05 | 6:53.19 | 78605 | 109598
6 | 24:21.24 | 2:46.03 | 109599 | 122051
7 | 27:07.27 | 6:49.28 | 122052 | 152754
8 | 33:56.55 | 5:17.66 | 152755 | 176595
9 | 39:14.46 | 3:47.27 | 176596 | 193647
10 | 43:01.73 | 4:17.46 | 193648 | 212968
11 | 47:19.44 | 4:18.24 | 212969 | 232342
12 | 51:37.68 | 1:29.27 | 232343 | 239044
Характеристики диапазона извлечения и сообщения об ошибках
Выбранный диапазон
Имя файла E:\Haydn\CD 5\Buchberger Quartet - J.Haydn - Complete String Quartets CD5 93889 5.wav
Пиковый уровень 99.0 %
Качество диапазона 100.0 %
CRC копии 4C27047B
Копирование... OK
Ошибок не произошло
AccurateRip: сводка
Трек 1 точность не определена (достоверность 7) [4A05FB9E], AccurateRip вернул [BBAD0013]
Трек 2 точность не определена (достоверность 7) [461C3534], AccurateRip вернул [4692EC4E]
Трек 3 точность не определена (достоверность 7) [7C640774], AccurateRip вернул [403A2DCA]
Трек 4 точность не определена (достоверность 7) [ED80661B], AccurateRip вернул [5C6009B2]
Трек 5 точность не определена (достоверность 7) [B3FF70C5], AccurateRip вернул [204BC82E]
Трек 6 точность не определена (достоверность 7) [DC058194], AccurateRip вернул [B7129A4E]
Трек 7 точность не определена (достоверность 7) [82829FF1], AccurateRip вернул [E18A5930]
Трек 8 точность не определена (достоверность 7) [15A72BC0], AccurateRip вернул [26D63B26]
Трек 9 точность не определена (достоверность 7) [7C6D5BA0], AccurateRip вернул [02962116]
Трек 10 точность не определена (достоверность 7) [66BF6C7A], AccurateRip вернул [5DB0780E]
Трек 11 точность не определена (достоверность 7) [236668BE], AccurateRip вернул [25F9AD12]
Трек 12 точность не определена (достоверность 7) [86875839], AccurateRip вернул [747F09FB]
Ни один трек не прошёл проверки на точность
В вашей базе может быть иной вариант штамповки диска
Конец отчёта

Содержание индексной карты (.CUE)

REM GENRE "Chamber Music"
REM DATE 2005
REM DISCID A30C730C
REM COMMENT "ExactAudioCopy v0.99pb5"
PERFORMER "Buchberger Quartet"
TITLE "J.Haydn - Complete String Quartets CD5 93889/5"
FILE "Buchberger Quartet - J.Haydn - Complete String Quartets CD5 93889 5.ape" WAVE
TRACK 01 AUDIO
TITLE "String Quartet in E flat major Op. 9 No. 2, moderato"
PERFORMER "Buchberger Quartet"
INDEX 01 00:00:00
TRACK 02 AUDIO
TITLE "String Quartet in E flat major Op. 9 No. 2, menuetto-trio"
PERFORMER "Buchberger Quartet"
INDEX 00 06:03:67
INDEX 01 06:06:12
TRACK 03 AUDIO
TITLE "String Quartet in E flat major Op. 9 No. 2, adagio"
PERFORMER "Buchberger Quartet"
INDEX 00 08:37:34
INDEX 01 08:41:14
TRACK 04 AUDIO
TITLE "String Quartet in E flat major Op. 9 No. 2, finale, allegro molto"
PERFORMER "Buchberger Quartet"
INDEX 01 13:59:68
TRACK 05 AUDIO
TITLE "String Quartet in B flat major Op. 9 No. 5, poco adagio"
PERFORMER "Buchberger Quartet"
INDEX 00 17:16:17
INDEX 01 17:28:05
TRACK 06 AUDIO
TITLE "String Quartet in B flat major Op. 9 No. 5, menuetto, allegro-trio"
PERFORMER "Buchberger Quartet"
INDEX 00 24:19:00
INDEX 01 24:21:24
TRACK 07 AUDIO
TITLE "String Quartet in B flat major Op. 9 No. 5, largo cantabile"
PERFORMER "Buchberger Quartet"
INDEX 00 27:03:64
INDEX 01 27:07:27
TRACK 08 AUDIO
TITLE "String Quartet in B flat major Op. 9 No. 5, finale, presto"
PERFORMER "Buchberger Quartet"
INDEX 01 33:56:55
TRACK 09 AUDIO
TITLE "String Quartet in A major Op. 9 No. 6, presto"
PERFORMER "Buchberger Quartet"
INDEX 00 39:02:09
INDEX 01 39:14:46
TRACK 10 AUDIO
TITLE "String Quartet in A major Op. 9 No. 6, menuetto-trio"
PERFORMER "Buchberger Quartet"
INDEX 01 43:01:73
TRACK 11 AUDIO
TITLE "String Quartet in A major Op. 9 No. 6, adagio"
PERFORMER "Buchberger Quartet"
INDEX 00 47:16:33
INDEX 01 47:19:44
TRACK 12 AUDIO
TITLE "String Quartet in A major Op. 9 No. 6, finale, presto"
PERFORMER "Buchberger Quartet"
INDEX 01 51:37:68

CD 6Треклист

CD 6
String Quartet Op. 17 No. 2 in F HOB.III:26
01. moderato..........04:56
02. menuet, poco allegretto..........03:20
03. adagio..........05:02
04. finale, allegro di molto..........03:59
String Quartet Op. 17 No. 1 in E HOB.III:25
05. moderato..........06:26
06. menuet..........05:12
07. adagio..........07:23
08. finale, presto..........03:42
String Quartet Op. 17 No. 4 in C minor HOB.III:28
09. moderato..........06:00
10. menuet, allegretto..........04:52
11. adagio..........06:48
12. finale, allegro..........04:16
Time: 62:01

Лог создания рипа

Exact Audio Copy V0.99 prebeta 5 from 4. May 2009
Отчёт EAC об извлечении, выполненном 17. октября 2014, 21:20
Buchberger Quartet / J.Haydn - Complete String Quartets CD6 93889/6
Дисковод: PIONEER DVD-RW DVRKD08RS Adapter: 1 ID: 0
Режим чтения : Достоверность
Использование точного потока : Да
Отключение кэша аудио : Да
Использование указателей C2 : Нет
Коррекция смещения при чтении : 48
Способность читать области Lead-in и Lead-out : Нет
Заполнение пропущенных сэмплов тишиной : Да
Удаление блоков с тишиной в начале и конце : Нет
При вычислениях CRC использовались нулевые сэмплы : Да
Интерфейс : Встроенный Win32-интерфейс для Win NT/2000
Выходной формат : Внутренние WAV-операции
Формат сэмплов : 44.100 Гц; 16 бит; стерео
TOC извлечённого CD
Трек | Старт | Длительность | Начальный сектор | Конечный сектор
---------------------------------------------------------------------
1 | 0:00.00 | 4:56.43 | 0 | 22242
2 | 4:56.43 | 3:20.27 | 22243 | 37269
3 | 8:16.70 | 5:03.00 | 37270 | 59994
4 | 13:19.70 | 3:59.27 | 59995 | 77946
5 | 17:19.22 | 6:26.06 | 77947 | 106902
6 | 23:45.28 | 5:12.57 | 106903 | 130359
7 | 28:58.10 | 7:23.34 | 130360 | 163618
8 | 36:21.44 | 3:42.08 | 163619 | 180276
9 | 40:03.52 | 6:00.46 | 180277 | 207322
10 | 46:04.23 | 4:52.03 | 207323 | 229225
11 | 50:56.26 | 6:48.39 | 229226 | 259864
12 | 57:44.65 | 4:16.34 | 259865 | 279098
Характеристики диапазона извлечения и сообщения об ошибках
Выбранный диапазон
Имя файла E:\Haydn\Buchberger Quartet - J.Haydn - Complete String Quartets CD6 93889 6.wav
Пиковый уровень 99.5 %
Качество диапазона 100.0 %
CRC копии FA6659C6
Копирование... OK
Ошибок не произошло
AccurateRip: сводка
Трек 1 точность не определена (достоверность 4) [4743D416], AccurateRip вернул [511CE5BE]
Трек 2 точность не определена (достоверность 4) [84CEAFAB], AccurateRip вернул [20152ED3]
Трек 3 точность не определена (достоверность 4) [55988EE2], AccurateRip вернул [058ABEB0]
Трек 4 точность не определена (достоверность 4) [48BCAACD], AccurateRip вернул [49D050C8]
Трек 5 точность не определена (достоверность 4) [A560CA23], AccurateRip вернул [7025CA64]
Трек 6 точность не определена (достоверность 4) [E6DEC81B], AccurateRip вернул [5191684E]
Трек 7 точность не определена (достоверность 4) [D8DB3B11], AccurateRip вернул [A2C2FF31]
Трек 8 точность не определена (достоверность 4) [DA96DA7B], AccurateRip вернул [8A279439]
Трек 9 точность не определена (достоверность 4) [C74E91F5], AccurateRip вернул [A87CCDB8]
Трек 10 точность не определена (достоверность 4) [D53C19DC], AccurateRip вернул [C126AEFE]
Трек 11 точность не определена (достоверность 4) [28FDB6B1], AccurateRip вернул [BE1E1537]
Трек 12 точность не определена (достоверность 4) [9ABF19E7], AccurateRip вернул [C1D040C5]
Ни один трек не прошёл проверки на точность
В вашей базе может быть иной вариант штамповки диска
Конец отчёта

Содержание индексной карты (.CUE)

REM GENRE "Chamber Music"
REM DATE 2006
REM DISCID A40E890C
REM COMMENT "ExactAudioCopy v0.99pb5"
PERFORMER "Buchberger Quartet"
TITLE " J.Haydn - Complete String Quartets CD6 93889/6"
FILE "Buchberger Quartet - J.Haydn - Complete String Quartets CD6 93889 6.ape" WAVE
TRACK 01 AUDIO
TITLE "String Quartet Op. 17 No. 2 in F major, moderato"
PERFORMER "Buchberger Quartet"
INDEX 01 00:00:00
TRACK 02 AUDIO
TITLE "String Quartet Op. 17 No. 2 in F major, menuet, poco allegretto"
PERFORMER "Buchberger Quartet"
INDEX 00 04:52:34
INDEX 01 04:56:43
TRACK 03 AUDIO
TITLE "String Quartet Op. 17 No. 2 in F major, adagio"
PERFORMER "Buchberger Quartet"
INDEX 00 08:13:07
INDEX 01 08:16:70
TRACK 04 AUDIO
TITLE "String Quartet Op. 17 No. 2 in F major, finale, allegro di molto"
PERFORMER "Buchberger Quartet"
INDEX 00 13:15:48
INDEX 01 13:19:70
TRACK 05 AUDIO
TITLE "String Quartet Op. 17 No. 1 in E major, moderato"
PERFORMER "Buchberger Quartet"
INDEX 00 17:12:37
INDEX 01 17:19:22
TRACK 06 AUDIO
TITLE "String Quartet Op. 17 No. 1 in E major, menuet"
PERFORMER "Buchberger Quartet"
INDEX 00 23:41:66
INDEX 01 23:45:28
TRACK 07 AUDIO
TITLE "String Quartet Op. 17 No. 1 in E major, adagio"
PERFORMER "Buchberger Quartet"
INDEX 00 28:53:65
INDEX 01 28:58:10
TRACK 08 AUDIO
TITLE "String Quartet Op. 17 No. 1 in E major, finale, presto"
PERFORMER "Buchberger Quartet"
INDEX 01 36:21:44
TRACK 09 AUDIO
TITLE "String Quartet Op. 17 No. 4 in C minor, moderato"
PERFORMER "Buchberger Quartet"
INDEX 00 39:57:52
INDEX 01 40:03:52
TRACK 10 AUDIO
TITLE "String Quartet Op. 17 No. 4 in C minor, menuet, allegretto"
PERFORMER "Buchberger Quartet"
INDEX 00 46:00:17
INDEX 01 46:04:23
TRACK 11 AUDIO
TITLE "String Quartet Op. 17 No. 4 in C minor, adagio"
PERFORMER "Buchberger Quartet"
INDEX 00 50:52:16
INDEX 01 50:56:26
TRACK 12 AUDIO
TITLE "String Quartet Op. 17 No. 4 in C minor, finale, allegro"
PERFORMER "Buchberger Quartet"
INDEX 01 57:44:65

CD 7Треклист

CD 7
String Quartet Op. 17 No. 6 in D HOB.III:30
01. presto..........04:37
02. menuet..........02:55
03. largo..........06:05
04. finale, allegro..........04:16
String Quartet Op. 17 No. 3 in E flat HOB.III:27
05. andante grazioso..........06:55
06. menuet, allegretto..........03:12
07. adagio..........08:14
08. allegro di molto..........03:58
String Quartet Op. 17 No. 5 in G HOB.III:29
09. moderato..........06:03
10. menuet, allegretto..........02:36
11. adagio..........05:13
12. finale, presto..........02:43
Time: 56:52

Лог создания рипа

Exact Audio Copy V0.99 prebeta 5 from 4. May 2009
Отчёт EAC об извлечении, выполненном 28. сентября 2014, 14:07
Buchberger Quartet / J.Haydn - Complete String Quartets CD7 93889/7
Дисковод: PIONEER DVD-RW DVRKD08RS Adapter: 1 ID: 0
Режим чтения : Достоверность
Использование точного потока : Да
Отключение кэша аудио : Да
Использование указателей C2 : Нет
Коррекция смещения при чтении : 48
Способность читать области Lead-in и Lead-out : Нет
Заполнение пропущенных сэмплов тишиной : Да
Удаление блоков с тишиной в начале и конце : Нет
При вычислениях CRC использовались нулевые сэмплы : Да
Интерфейс : Встроенный Win32-интерфейс для Win NT/2000
Выходной формат : Внутренние WAV-операции
Формат сэмплов : 44.100 Гц; 16 бит; стерео
TOC извлечённого CD
Трек | Старт | Длительность | Начальный сектор | Конечный сектор
---------------------------------------------------------------------
1 | 0:00.00 | 4:37.58 | 0 | 20832
2 | 4:37.58 | 2:55.59 | 20833 | 34016
3 | 7:33.42 | 6:05.05 | 34017 | 61396
4 | 13:38.47 | 4:16.44 | 61397 | 80640
5 | 17:55.16 | 6:55.43 | 80641 | 111808
6 | 24:50.59 | 3:12.02 | 111809 | 126210
7 | 28:02.61 | 8:14.31 | 126211 | 163291
8 | 36:17.17 | 3:58.15 | 163292 | 181156
9 | 40:15.32 | 6:03.37 | 181157 | 208418
10 | 46:18.69 | 2:36.15 | 208419 | 220133
11 | 48:55.09 | 5:13.29 | 220134 | 243637
12 | 54:08.38 | 2:43.67 | 243638 | 255929
Характеристики диапазона извлечения и сообщения об ошибках
Выбранный диапазон
Имя файла E:\Haydn\CD 7\Buchberger Quartet - J.Haydn - Complete String Quartets CD7 93889 7.wav
Пиковый уровень 97.4 %
Качество диапазона 99.9 %
CRC копии 321CF30F
Копирование... OK
Ошибок не произошло
AccurateRip: сводка
Трек 1 точность не определена (достоверность 7) [A4470C94], AccurateRip вернул [3564250D]
Трек 2 точность не определена (достоверность 7) [BDA95121], AccurateRip вернул [ED75A5EC]
Трек 3 точность не определена (достоверность 7) [22068B14], AccurateRip вернул [05737F67]
Трек 4 точность не определена (достоверность 7) [357B6133], AccurateRip вернул [9FB5FD00]
Трек 5 точность не определена (достоверность 7) [9C2A6F8B], AccurateRip вернул [F332D5A8]
Трек 6 точность не определена (достоверность 7) [6EFB0306], AccurateRip вернул [448D2F85]
Трек 7 точность не определена (достоверность 7) [75947F23], AccurateRip вернул [DB06DD3E]
Трек 8 точность не определена (достоверность 7) [A2AA723C], AccurateRip вернул [D9C99F4D]
Трек 9 точность не определена (достоверность 7) [444D425B], AccurateRip вернул [B0E931C3]
Трек 10 точность не определена (достоверность 7) [4365B634], AccurateRip вернул [37E6F8FA]
Трек 11 точность не определена (достоверность 7) [DD358D7C], AccurateRip вернул [379FA603]
Трек 12 точность не определена (достоверность 7) [E6E19698], AccurateRip вернул [F1772F9F]
Ни один трек не прошёл проверки на точность
В вашей базе может быть иной вариант штамповки диска
Конец отчёта

Содержание индексной карты (.CUE)

REM GENRE "Chamber Music"
REM DATE 2007
REM DISCID AF0D540C
REM COMMENT "ExactAudioCopy v0.99pb5"
PERFORMER "Buchberger Quartet"
TITLE " J.Haydn - Complete String Quartets CD7 93889/7"
FILE "Buchberger Quartet - J.Haydn - Complete String Quartets CD7 93889 7.ape" WAVE
TRACK 01 AUDIO
TITLE "String Quartet Op. 17 No. 6 in D major, presto"
PERFORMER "Buchberger Quartet"
INDEX 01 00:00:00
TRACK 02 AUDIO
TITLE "String Quartet Op. 17 No. 6 in D major, menuet"
PERFORMER "Buchberger Quartet"
INDEX 00 04:34:09
INDEX 01 04:37:58
TRACK 03 AUDIO
TITLE "String Quartet Op. 17 No. 6 in D major, largo"
PERFORMER "Buchberger Quartet"
INDEX 00 07:28:35
INDEX 01 07:33:42
TRACK 04 AUDIO
TITLE "String Quartet Op. 17 No. 6 in D major, finale, allegro"
PERFORMER "Buchberger Quartet"
INDEX 01 13:38:47
TRACK 05 AUDIO
TITLE "String Quartet Op. 17 No. 3 in E flat major, andante grazioso"
PERFORMER "Buchberger Quartet"
INDEX 00 17:48:43
INDEX 01 17:55:16
TRACK 06 AUDIO
TITLE "String Quartet Op. 17 No. 3 in E flat major, menuet, allegretto"
PERFORMER "Buchberger Quartet"
INDEX 00 24:46:73
INDEX 01 24:50:59
TRACK 07 AUDIO
TITLE "String Quartet Op. 17 No. 3 in E flat major, adagio"
PERFORMER "Buchberger Quartet"
INDEX 00 27:59:22
INDEX 01 28:02:61
TRACK 08 AUDIO
TITLE "String Quartet Op. 17 No. 3 in E flat major, allegro di molto"
PERFORMER "Buchberger Quartet"
INDEX 01 36:17:17
TRACK 09 AUDIO
TITLE "String Quartet Op. 17 No. 5 in G major, moderato"
PERFORMER "Buchberger Quartet"
INDEX 00 40:09:28
INDEX 01 40:15:32
TRACK 10 AUDIO
TITLE "String Quartet Op. 17 No. 5 in G major, menuet, allegretto"
PERFORMER "Buchberger Quartet"
INDEX 00 46:13:36
INDEX 01 46:18:69
TRACK 11 AUDIO
TITLE "String Quartet Op. 17 No. 5 in G major, adagio"
PERFORMER "Buchberger Quartet"
INDEX 00 48:51:04
INDEX 01 48:55:09
TRACK 12 AUDIO
TITLE "String Quartet Op. 17 No. 5 in G major, finale, presto"
PERFORMER "Buchberger Quartet"
INDEX 01 54:08:38

CD 8Треклист

CD 8
String quartet Op. 20 No. 5 in F minor HOB.III:35
01. moderato..........06:54
02. menuet..........05:50
03. adagio..........05:27
04. finale, fuga a 2 soggetti..........02:59
String quartet Op. 20 No. 6 in A HOB.III:36
05. allegrodi molto e scherzando..........05:32
06. adagio..........05:26
07. menuet..........02:28
08. Fuga a 3 soggetti: allegro..........03:01
String Quartet Op. 20 No. 2 in C HOB.III:32
09. moderato..........06:49
10. capriccio-adagio..........05:44
11. menuet..........03:46
12. Fuga a 4 soggetti allegro..........03:28
Time: 57:29

Лог создания рипа

Exact Audio Copy V0.99 prebeta 5 from 4. May 2009
Отчёт EAC об извлечении, выполненном 28. сентября 2014, 14:22
Buchberger Quartet / J.Haydn - Complete String Quartets CD8 93889/8
Дисковод: PIONEER DVD-RW DVRKD08RS Adapter: 1 ID: 0
Режим чтения : Достоверность
Использование точного потока : Да
Отключение кэша аудио : Да
Использование указателей C2 : Нет
Коррекция смещения при чтении : 48
Способность читать области Lead-in и Lead-out : Нет
Заполнение пропущенных сэмплов тишиной : Да
Удаление блоков с тишиной в начале и конце : Нет
При вычислениях CRC использовались нулевые сэмплы : Да
Интерфейс : Встроенный Win32-интерфейс для Win NT/2000
Выходной формат : Внутренние WAV-операции
Формат сэмплов : 44.100 Гц; 16 бит; стерео
TOC извлечённого CD
Трек | Старт | Длительность | Начальный сектор | Конечный сектор
---------------------------------------------------------------------
1 | 0:00.00 | 6:54.02 | 0 | 31051
2 | 6:54.02 | 5:50.70 | 31052 | 57371
3 | 12:44.72 | 5:27.13 | 57372 | 81909
4 | 18:12.10 | 2:59.39 | 81910 | 95373
5 | 21:11.49 | 5:32.67 | 95374 | 120340
6 | 26:44.41 | 5:26.60 | 120341 | 144850
7 | 32:11.26 | 2:28.55 | 144851 | 156005
8 | 34:40.06 | 3:01.41 | 156006 | 169621
9 | 37:41.47 | 6:49.07 | 169622 | 200303
10 | 44:30.54 | 5:44.36 | 200304 | 226139
11 | 50:15.15 | 3:46.13 | 226140 | 243102
12 | 54:01.28 | 3:28.31 | 243103 | 258733
Характеристики диапазона извлечения и сообщения об ошибках
Выбранный диапазон
Имя файла E:\Haydn\CD 8\Buchberger Quartet - J.Haydn - Complete String Quartets CD8 93889 8.wav
Пиковый уровень 93.6 %
Качество диапазона 100.0 %
CRC копии 60FA5887
Копирование... OK
Ошибок не произошло
AccurateRip: сводка
Трек 1 точность не определена (достоверность 4) [215A8898], AccurateRip вернул [1B9F2F79]
Трек 2 точность не определена (достоверность 4) [973AF7D2], AccurateRip вернул [127B76BA]
Трек 3 точность не определена (достоверность 4) [616AEC8E], AccurateRip вернул [FB6F05DD]
Трек 4 точность не определена (достоверность 4) [929AC401], AccurateRip вернул [A8AC2646]
Трек 5 точность не определена (достоверность 4) [4392653C], AccurateRip вернул [450AC86A]
Трек 6 точность не определена (достоверность 4) [85129DBF], AccurateRip вернул [D2041719]
Трек 7 точность не определена (достоверность 4) [307B5974], AccurateRip вернул [D32C674E]
Трек 8 точность не определена (достоверность 4) [28659616], AccurateRip вернул [B617486B]
Трек 9 точность не определена (достоверность 4) [EE7EE897], AccurateRip вернул [BACA3B1C]
Трек 10 точность не определена (достоверность 4) [B14F7268], AccurateRip вернул [415306AA]
Трек 11 точность не определена (достоверность 4) [A1E448B4], AccurateRip вернул [0BC288FE]
Трек 12 точность не определена (достоверность 4) [0B889BD3], AccurateRip вернул [945FD2CA]
Ни один трек не прошёл проверки на точность
В вашей базе может быть иной вариант штамповки диска
Конец отчёта

Содержание индексной карты (.CUE)

REM GENRE "Chamber Music"
REM DATE 2006
REM DISCID 990D790C
REM COMMENT "ExactAudioCopy v0.99pb5"
PERFORMER "Buchberger Quartet"
TITLE " J.Haydn - Complete String Quartets CD8 93889/8"
FILE "Buchberger Quartet - J.Haydn - Complete String Quartets CD8 93889 8.ape" WAVE
TRACK 01 AUDIO
TITLE "String quartet in F minor Op. 20 No. 5, moderato"
PERFORMER "Buchberger Quartet"
INDEX 01 00:00:00
TRACK 02 AUDIO
TITLE "String quartet in F minor Op. 20 No. 5, menuet"
PERFORMER "Buchberger Quartet"
INDEX 00 06:50:54
INDEX 01 06:54:02
TRACK 03 AUDIO
TITLE "String quartet in F minor Op. 20 No. 5, adagio"
PERFORMER "Buchberger Quartet"
INDEX 00 12:41:06
INDEX 01 12:44:72
TRACK 04 AUDIO
TITLE "String quartet in F minor Op. 20 No. 5, finale, fuga a 2 soggetti"
PERFORMER "Buchberger Quartet"
INDEX 01 18:12:10
TRACK 05 AUDIO
TITLE "String quartet in A major Op. 20 No. 6, allegrodi molto e scherzando"
PERFORMER "Buchberger Quartet"
INDEX 00 21:03:10
INDEX 01 21:11:49
TRACK 06 AUDIO
TITLE "String quartet in A major Op. 20 No. 6, adagio"
PERFORMER "Buchberger Quartet"
INDEX 00 26:40:53
INDEX 01 26:44:41
TRACK 07 AUDIO
TITLE "String quartet in A major Op. 20 No. 6, menuet"
PERFORMER "Buchberger Quartet"
INDEX 00 32:08:33
INDEX 01 32:11:26
TRACK 08 AUDIO
TITLE "String quartet in A major Op. 20 No. 6, Fuga a 3 soggetti: allegro"
PERFORMER "Buchberger Quartet"
INDEX 01 34:40:06
TRACK 09 AUDIO
TITLE "String Quartet in C major Op. 20 No. 2, moderato"
PERFORMER "Buchberger Quartet"
INDEX 00 37:35:23
INDEX 01 37:41:47
TRACK 10 AUDIO
TITLE "String Quartet in C major Op. 20 No. 2, capriccio-adagio"
PERFORMER "Buchberger Quartet"
INDEX 00 44:25:48
INDEX 01 44:30:54
TRACK 11 AUDIO
TITLE "String Quartet in C major Op. 20 No. 2, menuet"
PERFORMER "Buchberger Quartet"
INDEX 01 50:15:15
TRACK 12 AUDIO
TITLE "String Quartet in C major Op. 20 No. 2, Fuga a 4 soggetti allegro"
PERFORMER "Buchberger Quartet"
INDEX 01 54:01:28

CD 9Треклист

CD 9
String quartet Op. 20 No. 3 in G minor HOB.III:33
01. allegro con spirito..........06:03
02. menuet..........04:47
03. poco adagio..........08:49
04. finale, allegro di molto..........03:55
String quartet Op. 20 No. 4 in D HOB.III:34
05. allegro di molto..........07:24
06. un poco adagio e affetuoso..........08:24
07. menuet alla zingarese..........01:33
08. presto e scherzando..........04:52
String quartet Op. 20 No. 1 in E flat HOB.III:31
09. allegro moderato..........06:25
10. menuet..........04:05
11. affetuoso e sostenuto..........06:05
12. finale, presto..........03:35
Time: 66:02

Лог создания рипа

Exact Audio Copy V0.99 prebeta 5 from 4. May 2009
Отчёт EAC об извлечении, выполненном 28. сентября 2014, 14:40
Buchberger Quartet / J.Haydn - Complete String Quartets CD9 93889/9
Дисковод: PIONEER DVD-RW DVRKD08RS Adapter: 1 ID: 0
Режим чтения : Достоверность
Использование точного потока : Да
Отключение кэша аудио : Да
Использование указателей C2 : Нет
Коррекция смещения при чтении : 48
Способность читать области Lead-in и Lead-out : Нет
Заполнение пропущенных сэмплов тишиной : Да
Удаление блоков с тишиной в начале и конце : Нет
При вычислениях CRC использовались нулевые сэмплы : Да
Интерфейс : Встроенный Win32-интерфейс для Win NT/2000
Выходной формат : Внутренние WAV-операции
Формат сэмплов : 44.100 Гц; 16 бит; стерео
TOC извлечённого CD
Трек | Старт | Длительность | Начальный сектор | Конечный сектор
---------------------------------------------------------------------
1 | 0:00.00 | 6:03.07 | 0 | 27231
2 | 6:03.07 | 4:47.29 | 27232 | 48785
3 | 10:50.36 | 8:49.40 | 48786 | 88500
4 | 19:40.01 | 3:55.74 | 88501 | 106199
5 | 23:36.00 | 7:24.34 | 106200 | 139533
6 | 31:00.34 | 8:24.41 | 139534 | 177374
7 | 39:25.00 | 1:33.07 | 177375 | 184356
8 | 40:58.07 | 4:52.32 | 184357 | 206288
9 | 45:50.39 | 6:25.19 | 206289 | 235182
10 | 52:15.58 | 4:05.30 | 235183 | 253587
11 | 56:21.13 | 6:05.15 | 253588 | 280977
12 | 62:26.28 | 3:35.63 | 280978 | 297165
Характеристики диапазона извлечения и сообщения об ошибках
Выбранный диапазон
Имя файла E:\Haydn\CD 9\Buchberger Quartet - J.Haydn - Complete String Quartets CD9 93889 9.wav
Пиковый уровень 97.2 %
Качество диапазона 100.0 %
CRC копии 06230FC8
Копирование... OK
Ошибок не произошло
AccurateRip: сводка
Трек 1 точность не определена (достоверность 4) [88A68A26], AccurateRip вернул [2298A1F1]
Трек 2 точность не определена (достоверность 4) [1D2CD191], AccurateRip вернул [AF5A1837]
Трек 3 точность не определена (достоверность 4) [0DAA79F0], AccurateRip вернул [40EDDB7C]
Трек 4 точность не определена (достоверность 4) [66BB2841], AccurateRip вернул [B5C41AD4]
Трек 5 точность не определена (достоверность 4) [DCCAF6A3], AccurateRip вернул [4412192C]
Трек 6 точность не определена (достоверность 4) [BF2F36FB], AccurateRip вернул [E10A1B0C]
Трек 7 точность не определена (достоверность 4) [86FBCD60], AccurateRip вернул [1DA88319]
Трек 8 точность не определена (достоверность 4) [FDCCD566], AccurateRip вернул [25F076E2]
Трек 9 точность не определена (достоверность 4) [6B5BA360], AccurateRip вернул [074F26F4]
Трек 10 точность не определена (достоверность 4) [67E4FA92], AccurateRip вернул [4F7E336C]
Трек 11 точность не определена (достоверность 4) [204FE5A2], AccurateRip вернул [98F1AEE6]
Трек 12 точность не определена (достоверность 4) [5FBEFC7B], AccurateRip вернул [863F35F6]
Ни один трек не прошёл проверки на точность
В вашей базе может быть иной вариант штамповки диска
Конец отчёта

Содержание индексной карты (.CUE)

REM GENRE "Chamber Music"
REM DATE 2006
REM DISCID AB0F7A0C
REM COMMENT "ExactAudioCopy v0.99pb5"
PERFORMER "Buchberger Quartet"
TITLE " J.Haydn - Complete String Quartets CD9 93889/9"
FILE "Buchberger Quartet - J.Haydn - Complete String Quartets CD9 93889 9.ape" WAVE
TRACK 01 AUDIO
TITLE "String quartet in G minor Op. 20 No. 3, allegro con spirito"
PERFORMER "Buchberger Quartet"
INDEX 01 00:00:00
TRACK 02 AUDIO
TITLE "String quartet in G minor Op. 20 No. 3, menuet"
PERFORMER "Buchberger Quartet"
INDEX 00 05:59:49
INDEX 01 06:03:07
TRACK 03 AUDIO
TITLE "String quartet in G minor Op. 20 No. 3, poco adagio"
PERFORMER "Buchberger Quartet"
INDEX 00 10:45:48
INDEX 01 10:50:36
TRACK 04 AUDIO
TITLE "String quartet in G minor Op. 20 No. 3, finale, allegro di molto"
PERFORMER "Buchberger Quartet"
INDEX 01 19:40:01
TRACK 05 AUDIO
TITLE "String quartet in D major Op. 20 No. 4, allegro di molto"
PERFORMER "Buchberger Quartet"
INDEX 00 23:27:46
INDEX 01 23:36:00
TRACK 06 AUDIO
TITLE "String quartet in D major Op. 20 No. 4, un poco adagio e affetuoso"
PERFORMER "Buchberger Quartet"
INDEX 00 30:54:61
INDEX 01 31:00:34
TRACK 07 AUDIO
TITLE "String quartet in D major Op. 20 No. 4, menuet alla zingarese"
PERFORMER "Buchberger Quartet"
INDEX 00 39:21:22
INDEX 01 39:25:00
TRACK 08 AUDIO
TITLE "String quartet in D major Op. 20 No. 4, presto e scherzando"
PERFORMER "Buchberger Quartet"
INDEX 01 40:58:07
TRACK 09 AUDIO
TITLE "String quartet in E flat major Op. 20 No. 1, allegro moderato"
PERFORMER "Buchberger Quartet"
INDEX 00 45:43:04
INDEX 01 45:50:39
TRACK 10 AUDIO
TITLE "String quartet in E flat major Op. 20 No. 1, menuet"
PERFORMER "Buchberger Quartet"
INDEX 00 52:11:43
INDEX 01 52:15:58
TRACK 11 AUDIO
TITLE "String quartet in E flat major Op. 20 No. 1, affetuoso e sostenuto"
PERFORMER "Buchberger Quartet"
INDEX 00 56:16:63
INDEX 01 56:21:13
TRACK 12 AUDIO
TITLE "String quartet in E flat major Op. 20 No. 1, finale, presto"
PERFORMER "Buchberger Quartet"
INDEX 01 62:26:28

CD 10Треклист

CD 10
String Quartet Op. 33 No. 5 in G HOB.III:41
01. vivace assai..........05:51
02. largo e cantabile..........04:15
03. scherzo, allegro..........02:48
04. finale, allegretto..........04:52
String Quartet Op. 33 No. 2 in E flat HOB.III:38
05. allegro moderato..........04:53
06. scherzo, allegro..........03:11
07. largo e sostenuto..........04:09
08. finale presto..........03:12
String Quartet Op. 33 No. 1 in B minor HOB.III:37
09. allegro moderato..........05:09
10. scherzo, allegro di molto..........02:04
11. andante..........06:28
12. presto..........03:59
Time: 50:56

Лог создания рипа

Exact Audio Copy V0.99 prebeta 5 from 4. May 2009
Отчёт EAC об извлечении, выполненном 28. сентября 2014, 14:56
Buchberger Quartet / J.Haydn - Complete String Quartets CD10 93889/10
Дисковод: PIONEER DVD-RW DVRKD08RS Adapter: 1 ID: 0
Режим чтения : Достоверность
Использование точного потока : Да
Отключение кэша аудио : Да
Использование указателей C2 : Нет
Коррекция смещения при чтении : 48
Способность читать области Lead-in и Lead-out : Нет
Заполнение пропущенных сэмплов тишиной : Да
Удаление блоков с тишиной в начале и конце : Нет
При вычислениях CRC использовались нулевые сэмплы : Да
Интерфейс : Встроенный Win32-интерфейс для Win NT/2000
Выходной формат : Внутренние WAV-операции
Формат сэмплов : 44.100 Гц; 16 бит; стерео
TOC извлечённого CD
Трек | Старт | Длительность | Начальный сектор | Конечный сектор
---------------------------------------------------------------------
1 | 0:00.00 | 5:51.45 | 0 | 26369
2 | 5:51.45 | 4:15.26 | 26370 | 45520
3 | 10:06.71 | 2:48.05 | 45521 | 58125
4 | 12:55.01 | 4:52.30 | 58126 | 80055
5 | 17:47.31 | 4:53.56 | 80056 | 102086
6 | 22:41.12 | 3:11.68 | 102087 | 116479
7 | 25:53.05 | 4:09.56 | 116480 | 135210
8 | 30:02.61 | 3:12.39 | 135211 | 149649
9 | 33:15.25 | 5:09.51 | 149650 | 172875
10 | 38:25.01 | 2:04.26 | 172876 | 182201
11 | 40:29.27 | 6:28.10 | 182202 | 211311
12 | 46:57.37 | 3:59.09 | 211312 | 229245
Характеристики диапазона извлечения и сообщения об ошибках
Выбранный диапазон
Имя файла E:\Haydn\CD 10\Buchberger Quartet - J.Haydn - Complete String Quartets CD10 93889 10.wav
Пиковый уровень 100.0 %
Качество диапазона 100.0 %
CRC копии 676289BE
Копирование... OK
Ошибок не произошло
AccurateRip: сводка
Трек 1 точность не определена (достоверность 4) [BA2158AE], AccurateRip вернул [325D1088]
Трек 2 точность не определена (достоверность 4) [BEF8E50D], AccurateRip вернул [0345F3DC]
Трек 3 точность не определена (достоверность 4) [389C02DA], AccurateRip вернул [3DB6FED3]
Трек 4 точность не определена (достоверность 4) [394B4944], AccurateRip вернул [5AADE126]
Трек 5 точность не определена (достоверность 4) [08DA3FF3], AccurateRip вернул [852FE4C8]
Трек 6 точность не определена (достоверность 4) [C2B858FF], AccurateRip вернул [F0ECA8C9]
Трек 7 точность не определена (достоверность 4) [2CF65048], AccurateRip вернул [4C5FAB5A]
Трек 8 точность не определена (достоверность 4) [308D83F2], AccurateRip вернул [78C9A5E4]
Трек 9 точность не определена (достоверность 4) [6145C083], AccurateRip вернул [38D1E5C4]
Трек 10 точность не определена (достоверность 4) [870D32FA], AccurateRip вернул [6AC47FE8]
Трек 11 точность не определена (достоверность 4) [24F0C275], AccurateRip вернул [0BD7AE71]
Трек 12 точность не определена (достоверность 4) [3014D97E], AccurateRip вернул [1D7A16C9]
Ни один трек не прошёл проверки на точность
В вашей базе может быть иной вариант штамповки диска
Конец отчёта

Содержание индексной карты (.CUE)

REM GENRE "Chamber Music"
REM DATE 2004
REM DISCID AE0BF00C
REM COMMENT "ExactAudioCopy v0.99pb5"
PERFORMER "Buchberger Quartet"
TITLE " J.Haydn - Complete String Quartets CD10 93889/10"
FILE "Buchberger Quartet - J.Haydn - Complete String Quartets CD10 93889 10.ape" WAVE
TRACK 01 AUDIO
TITLE "String Quartet Op. 33 No. 5 in G major, vivace assai"
PERFORMER "Buchberger Quartet"
INDEX 01 00:00:00
TRACK 02 AUDIO
TITLE "String Quartet Op. 33 No. 5 in G major, largo e cantabile"
PERFORMER "Buchberger Quartet"
INDEX 00 05:47:04
INDEX 01 05:51:45
TRACK 03 AUDIO
TITLE "String Quartet Op. 33 No. 5 in G major, scherzo, allegro"
PERFORMER "Buchberger Quartet"
INDEX 00 10:03:22
INDEX 01 10:06:71
TRACK 04 AUDIO
TITLE "String Quartet Op. 33 No. 5 in G major, finale, allegretto"
PERFORMER "Buchberger Quartet"
INDEX 00 12:52:52
INDEX 01 12:55:01
TRACK 05 AUDIO
TITLE "String Quartet Op. 33 No. 2 in E flat major, allegro moderato"
PERFORMER "Buchberger Quartet"
INDEX 00 17:34:15
INDEX 01 17:47:31
TRACK 06 AUDIO
TITLE "String Quartet Op. 33 No. 2 in E flat major, scherzo, allegro"
PERFORMER "Buchberger Quartet"
INDEX 00 22:38:23
INDEX 01 22:41:12
TRACK 07 AUDIO
TITLE "String Quartet Op. 33 No. 2 in E flat major, largo e sostenuto"
PERFORMER "Buchberger Quartet"
INDEX 00 25:50:49
INDEX 01 25:53:05
TRACK 08 AUDIO
TITLE "String Quartet Op. 33 No. 2 in E flat major, finale presto"
PERFORMER "Buchberger Quartet"
INDEX 01 30:02:61
TRACK 09 AUDIO
TITLE "String Quartet Op. 33 No. 1 in B minor, allegro moderato"
PERFORMER "Buchberger Quartet"
INDEX 00 33:02:73
INDEX 01 33:15:25
TRACK 10 AUDIO
TITLE "String Quartet Op. 33 No. 1 in B minor, scherzo, allegro di molto"
PERFORMER "Buchberger Quartet"
INDEX 00 38:21:70
INDEX 01 38:25:01
TRACK 11 AUDIO
TITLE "String Quartet Op. 33 No. 1 in B minor, andante"
PERFORMER "Buchberger Quartet"
INDEX 00 40:25:68
INDEX 01 40:29:27
TRACK 12 AUDIO
TITLE "String Quartet Op. 33 No. 1 in B minor, presto"
PERFORMER "Buchberger Quartet"
INDEX 00 46:55:63
INDEX 01 46:57:37

CD 11Треклист

CD 11
String Quartet Op. 33 No. 3 in C HOB.III:39 "Bird"/"Vogelquartett"
01. allegro moderato..........09:41
02. scherzo, allegretto..........02:38
03. adagio, ma non troppo..........05:26
04. rondo, presto..........02:52
String Quartet Op. 33 No. 6 in D HOB.III:42
05. vivace assai..........06:31
06. andante..........04:07
07. scherzo, allegretto..........02:16
08. finale, allegretto..........04:12
String Quartet Op. 33 No. 4 in B flat HOB.III:40
09. allegro moderato..........04:54
10. scherzo, allegretto..........02:10
11. largo..........04:15
12. presto..........04:49
String Quartet Op. 42 in D minor HOB.III:43
13. anadante e onnocentemente..........03:58
14. menuet..........02:45
15. adagio e cantabile..........03:09
16. finale, presto..........02:40
Time: 66:31

Лог создания рипа

Exact Audio Copy V0.99 prebeta 5 from 4. May 2009
Отчёт EAC об извлечении, выполненном 28. сентября 2014, 22:34
Buchberger Quartet / J.Haydn - Complete String Quartets CD11 93889/11
Дисковод: PIONEER DVD-RW DVRKD08RS Adapter: 1 ID: 0
Режим чтения : Достоверность
Использование точного потока : Да
Отключение кэша аудио : Да
Использование указателей C2 : Нет
Коррекция смещения при чтении : 48
Способность читать области Lead-in и Lead-out : Нет
Заполнение пропущенных сэмплов тишиной : Да
Удаление блоков с тишиной в начале и конце : Нет
При вычислениях CRC использовались нулевые сэмплы : Да
Интерфейс : Встроенный Win32-интерфейс для Win NT/2000
Выходной формат : Внутренние WAV-операции
Формат сэмплов : 44.100 Гц; 16 бит; стерео
TOC извлечённого CD
Трек | Старт | Длительность | Начальный сектор | Конечный сектор
---------------------------------------------------------------------
1 | 0:00.00 | 9:41.09 | 0 | 43583
2 | 9:41.09 | 2:38.45 | 43584 | 55478
3 | 12:19.54 | 5:26.35 | 55479 | 79963
4 | 17:46.14 | 2:52.07 | 79964 | 92870
5 | 20:38.21 | 6:31.69 | 92871 | 122264
6 | 27:10.15 | 4:07.56 | 122265 | 140845
7 | 31:17.71 | 2:16.50 | 140846 | 151095
8 | 33:34.46 | 4:12.44 | 151096 | 170039
9 | 37:47.15 | 4:54.57 | 170040 | 192146
10 | 42:41.72 | 2:10.32 | 192147 | 201928
11 | 44:52.29 | 4:15.09 | 201929 | 221062
12 | 49:07.38 | 4:49.21 | 221063 | 242758
13 | 53:56.59 | 3:58.51 | 242759 | 260659
14 | 57:55.35 | 2:45.17 | 260660 | 273051
15 | 60:40.52 | 3:09.68 | 273052 | 287294
16 | 63:50.45 | 2:40.45 | 287295 | 299339
Характеристики диапазона извлечения и сообщения об ошибках
Выбранный диапазон
Имя файла E:\Haydn\CD 11\Buchberger Quartet - J.Haydn - Complete String Quartets CD11 93889 11.wav
Пиковый уровень 95.5 %
Качество диапазона 100.0 %
CRC копии 6DE66DA5
Копирование... OK
Ошибок не произошло
AccurateRip: сводка
Трек 1 точность не определена (достоверность 4) [E401BF0D], AccurateRip вернул [0832FBD2]
Трек 2 точность не определена (достоверность 4) [EB5D2390], AccurateRip вернул [A36A79FF]
Трек 3 точность не определена (достоверность 4) [C617179E], AccurateRip вернул [3DC621A9]
Трек 4 точность не определена (достоверность 4) [0B72530B], AccurateRip вернул [61B7EFC2]
Трек 5 точность не определена (достоверность 4) [F9862F67], AccurateRip вернул [A524EBBD]
Трек 6 точность не определена (достоверность 4) [1B624433], AccurateRip вернул [F374B048]
Трек 7 точность не определена (достоверность 4) [E804E3F0], AccurateRip вернул [63277B03]
Трек 8 точность не определена (достоверность 4) [5561DE59], AccurateRip вернул [69F21751]
Трек 9 точность не определена (достоверность 4) [A1EAD241], AccurateRip вернул [2CC5E8F1]
Трек 10 точность не определена (достоверность 4) [F748A85E], AccurateRip вернул [FC8206D9]
Трек 11 точность не определена (достоверность 4) [1CB40960], AccurateRip вернул [C9FEAC98]
Трек 12 точность не определена (достоверность 4) [EF3DA0A5], AccurateRip вернул [6D007799]
Трек 13 точность не определена (достоверность 4) [8E8E4E2F], AccurateRip вернул [5C67E9AB]
Трек 14 точность не определена (достоверность 4) [576559EE], AccurateRip вернул [888C4D24]
Трек 15 точность не определена (достоверность 4) [A0752674], AccurateRip вернул [2B3D831F]
Трек 16 точность не определена (достоверность 4) [906D785C], AccurateRip вернул [4D10CC00]
Ни один трек не прошёл проверки на точность
В вашей базе может быть иной вариант штамповки диска
Конец отчёта

Содержание индексной карты (.CUE)

REM GENRE "Chamber Music"
REM DATE 2005
REM DISCID F60F9710
REM COMMENT "ExactAudioCopy v0.99pb5"
PERFORMER "Buchberger Quartet"
TITLE "J.Haydn - Complete String Quartets CD11 93889/11"
FILE "Buchberger Quartet - J.Haydn - Complete String Quartets CD11 93889 11.ape" WAVE
TRACK 01 AUDIO
TITLE "String Quartet Op. 33 No. 3 in C major, allegro moderato"
PERFORMER "Buchberger Quartet"
INDEX 01 00:00:00
TRACK 02 AUDIO
TITLE "String Quartet Op. 33 No. 3 in C major, scherzo, allegretto"
PERFORMER "Buchberger Quartet"
INDEX 01 09:41:09
TRACK 03 AUDIO
TITLE "String Quartet Op. 33 No. 3 in C major, adagio, ma non troppo"
PERFORMER "Buchberger Quartet"
INDEX 01 12:19:54
TRACK 04 AUDIO
TITLE "String Quartet Op. 33 No. 3 in C major, rondo, presto"
PERFORMER "Buchberger Quartet"
INDEX 01 17:46:14
TRACK 05 AUDIO
TITLE "String Quartet Op. 33 No. 6 in D major, vivace assai"
PERFORMER "Buchberger Quartet"
INDEX 00 20:26:28
INDEX 01 20:38:21
TRACK 06 AUDIO
TITLE "String Quartet Op. 33 No. 6 in D major, andante"
PERFORMER "Buchberger Quartet"
INDEX 01 27:10:15
TRACK 07 AUDIO
TITLE "String Quartet Op. 33 No. 6 in D major, scherzo, allegretto"
PERFORMER "Buchberger Quartet"
INDEX 01 31:17:71
TRACK 08 AUDIO
TITLE "String Quartet Op. 33 No. 6 in D major, finale, allegretto"
PERFORMER "Buchberger Quartet"
INDEX 01 33:34:46
TRACK 09 AUDIO
TITLE "String Quartet Op. 33 No. 4 in B flat major, allegro moderato"
PERFORMER "Buchberger Quartet"
INDEX 00 37:34:30
INDEX 01 37:47:15
TRACK 10 AUDIO
TITLE "String Quartet Op. 33 No. 4 in B flat major, scherzo, allegretto"
PERFORMER "Buchberger Quartet"
INDEX 01 42:41:72
TRACK 11 AUDIO
TITLE "String Quartet Op. 33 No. 4 in B flat major, largo"
PERFORMER "Buchberger Quartet"
INDEX 01 44:52:29
TRACK 12 AUDIO
TITLE "String Quartet Op. 33 No. 4 in B flat major, presto"
PERFORMER "Buchberger Quartet"
INDEX 01 49:07:38
TRACK 13 AUDIO
TITLE "String Quartet Op. 42 in D minor, anadante e onnocentemente"
PERFORMER "Buchberger Quartet"
INDEX 00 53:44:46
INDEX 01 53:56:59
TRACK 14 AUDIO
TITLE "String Quartet Op. 42 in D minor, menuet"
PERFORMER "Buchberger Quartet"
INDEX 01 57:55:35
TRACK 15 AUDIO
TITLE "String Quartet Op. 42 in D minor, adagio e cantabile"
PERFORMER "Buchberger Quartet"
INDEX 01 60:40:52
TRACK 16 AUDIO
TITLE "String Quartet Op. 42 in D minor, finale, presto"
PERFORMER "Buchberger Quartet"
INDEX 01 63:50:45

CD 12Треклист

CD 12
String Quartet Op. 50 No. 1 in B flat HOB.III:45
01. allegro..........05:23
02. adagio non lento..........07:21
03. menuetto. Poco allegretto - Trio..........03:04
04. finale - Vivace..........05:01
String Quartet Op. 50 No. 2 in C HOB.III:45
05. vivace..........07:04
06. adagio..........04:46
07. menuetto. Allegretto - Trio..........04:04
08. finale. Vivace assai..........04:50
String Quartet Op. 50 No. 3 in E flat HOB.III:46
09. allegro con brio..........04:38
10. andante piщ tosto allegretto..........06:34
11. menuetto. Allegretto - Trio..........04:45
12. finale. Presto..........03:37
Time: 61:14

Лог создания рипа

Exact Audio Copy V0.99 prebeta 5 from 4. May 2009
Отчёт EAC об извлечении, выполненном 29. сентября 2014, 22:18
Buchberger Quartet / J.Haydn - Complete String Quartets CD12 93889/12
Дисковод: PIONEER DVD-RW DVRKD08RS Adapter: 1 ID: 0
Режим чтения : Достоверность
Использование точного потока : Да
Отключение кэша аудио : Да
Использование указателей C2 : Нет
Коррекция смещения при чтении : 48
Способность читать области Lead-in и Lead-out : Нет
Заполнение пропущенных сэмплов тишиной : Да
Удаление блоков с тишиной в начале и конце : Нет
При вычислениях CRC использовались нулевые сэмплы : Да
Интерфейс : Встроенный Win32-интерфейс для Win NT/2000
Выходной формат : Внутренние WAV-операции
Формат сэмплов : 44.100 Гц; 16 бит; стерео
TOC извлечённого CD
Трек | Старт | Длительность | Начальный сектор | Конечный сектор
---------------------------------------------------------------------
1 | 0:00.00 | 5:23.67 | 0 | 24291
2 | 5:23.67 | 7:21.61 | 24292 | 57427
3 | 12:45.53 | 3:04.12 | 57428 | 71239
4 | 15:49.65 | 5:01.24 | 71240 | 93838
5 | 20:51.14 | 7:04.45 | 93839 | 125683
6 | 27:55.59 | 4:46.26 | 125684 | 147159
7 | 32:42.10 | 4:04.38 | 147160 | 165497
8 | 36:46.48 | 4:50.72 | 165498 | 187319
9 | 41:37.45 | 4:38.60 | 187320 | 208229
10 | 46:16.30 | 6:34.42 | 208230 | 237821
11 | 52:50.72 | 4:45.28 | 237822 | 259224
12 | 57:36.25 | 3:37.67 | 259225 | 275566
Характеристики диапазона извлечения и сообщения об ошибках
Выбранный диапазон
Имя файла E:\Haydn\CD 12\Buchberger Quartet - J.Haydn - Complete String Quartets CD12 93889 12.wav
Пиковый уровень 100.0 %
Качество диапазона 100.0 %
CRC копии 9D884123
Копирование... OK
Ошибок не произошло
AccurateRip: сводка
Трек 1 точность не определена (достоверность 4) [427DCE18], AccurateRip вернул [070E659B]
Трек 2 точность не определена (достоверность 4) [4E7600E5], AccurateRip вернул [13AAB90F]
Трек 3 точность не определена (достоверность 4) [EB56E687], AccurateRip вернул [EB4944B2]
Трек 4 точность не определена (достоверность 4) [C370AB92], AccurateRip вернул [00F4EA13]
Трек 5 точность не определена (достоверность 4) [EE9AE46A], AccurateRip вернул [109E1A1C]
Трек 6 точность не определена (достоверность 4) [771A7CAB], AccurateRip вернул [12F47F03]
Трек 7 точность не определена (достоверность 4) [1486A5E8], AccurateRip вернул [CF19A098]
Трек 8 точность не определена (достоверность 4) [3BCA43C6], AccurateRip вернул [A08F7A15]
Трек 9 точность не определена (достоверность 4) [37BD2994], AccurateRip вернул [BBA7C424]
Трек 10 точность не определена (достоверность 4) [5C804C08], AccurateRip вернул [BEC17FBD]
Трек 11 точность не определена (достоверность 4) [6E449EB3], AccurateRip вернул [9F149C8D]
Трек 12 точность не определена (достоверность 4) [379F6CB6], AccurateRip вернул [7EBBE22C]
Ни один трек не прошёл проверки на точность
В вашей базе может быть иной вариант штамповки диска
Конец отчёта

Содержание индексной карты (.CUE)

REM GENRE "Chamber Music"
REM DATE 2007
REM DISCID C00E5A0C
REM COMMENT "ExactAudioCopy v0.99pb5"
PERFORMER "Buchberger Quartet"
TITLE "J.Haydn - Complete String Quartets CD12 93889/12"
FILE "Buchberger Quartet - J.Haydn - Complete String Quartets CD12 93889 12.ape" WAVE
TRACK 01 AUDIO
TITLE "Opus 50 nr 1 in B flat major - Allegro"
PERFORMER "Buchberger Quartet"
INDEX 01 00:00:00
TRACK 02 AUDIO
TITLE "Opus 50 nr 1 in B flat major - Adagio non lento"
PERFORMER "Buchberger Quartet"
INDEX 00 05:20:74
INDEX 01 05:23:67
TRACK 03 AUDIO
TITLE "Opus 50 nr 1 in B flat major - Menuetto. Poco allegretto - Trio"
PERFORMER "Buchberger Quartet"
INDEX 00 12:42:48
INDEX 01 12:45:53
TRACK 04 AUDIO
TITLE "Opus 50 nr 1 in B flat major - Finale - Vivace"
PERFORMER "Buchberger Quartet"
INDEX 01 15:49:65
TRACK 05 AUDIO
TITLE "Opus 50 nr 2 in C major - Vivace"
PERFORMER "Buchberger Quartet"
INDEX 00 20:45:01
INDEX 01 20:51:14
TRACK 06 AUDIO
TITLE "Opus 50 nr 2 in C major - Adagio"
PERFORMER "Buchberger Quartet"
INDEX 00 27:52:16
INDEX 01 27:55:59
TRACK 07 AUDIO
TITLE "Opus 50 nr 2 in C major - Menuetto. Allegretto - Trio"
PERFORMER "Buchberger Quartet"
INDEX 00 32:39:02
INDEX 01 32:42:10
TRACK 08 AUDIO
TITLE "Opus 50 nr 2 in C major - Finale. Vivace assai"
PERFORMER "Buchberger Quartet"
INDEX 01 36:46:48
TRACK 09 AUDIO
TITLE "Opus 50 nr 3 in E flat major - Allegro con brio"
PERFORMER "Buchberger Quartet"
INDEX 00 41:29:19
INDEX 01 41:37:45
TRACK 10 AUDIO
TITLE "Opus 50 nr 3 in E flat major - Andante piщ tosto allegretto"
PERFORMER "Buchberger Quartet"
INDEX 00 46:12:67
INDEX 01 46:16:30
TRACK 11 AUDIO
TITLE "Opus 50 nr 3 in E flat major Menuetto. Allegretto - Trio"
PERFORMER "Buchberger Quartet"
INDEX 00 52:48:06
INDEX 01 52:50:72
TRACK 12 AUDIO
TITLE "Opus 50 nr 3 in E flat major - Finale. Presto"
PERFORMER "Buchberger Quartet"
INDEX 01 57:36:25



Показать сообщения:    

Текущее время: 08-Дек 01:21

Часовой пояс: UTC + 3


Вы не можете начинать темы
Вы не можете отвечать на сообщения
Вы не можете редактировать свои сообщения
Вы не можете удалять свои сообщения
Вы не можете голосовать в опросах
Вы не можете прикреплять файлы к сообщениям
Вы не можете скачивать файлы