(Opera) Mascagni - Lodoletta (Tavolaccini, Campora, Fioravanti, Cassinelli - RAI Orchestra, Paoletti) * Bonustracks: Mascagni (Gencer-Zambon; Bastianni; Pobbe-Ferraro-Gualtiero) - 2002, APE (image+.cue) lossless


 

[Цитировать]

Pietro Mascagni - Lodoletta
Жанр: Opera
Страна-производитель диска: Portugal
Год издания диска: 2002
Издатель (лейбл): Gala
Номер по каталогу: GL 100.717
Дата записи: 1957-1971
Аудиокодек: APE
Тип рипа: image+.cue
Битрейт аудио: lossless
Продолжительность: 70'55+74'11
Источник: собственный рип
Наличие сканов в содержимом раздачи: да
Треклист:

CD1

1. Act 1. Ah! Cercalo, cercalo!
2. Act 1. Grazie, comari
3. Act 1. Ferma! Ferma!
4. Act 1. Piango sulla tua tomba!
5. Act 1. Dicon che a far denari
6. Act 1. Serenata delle fate
7. Act 1. Ah! Voi cantate meglio delle fate
8. Act 1. Lodoletta
9. Act 1. A voi, bambini
10. Act 1. Antonio
11. Act 1. Povero Antonio
12. Act 1. No, comari
13. Act 1. È qui
14. Act 2. Oggi sarai finita
15. Act 2. All'alba di Novembre
16. Act 2. Bu! Bu! Bu Malandrini
17. Act 2. Che mattinata grigia
18. Act 2. Ah! Signor Flamen!
19. Act 2. Perchè? Perchè? Vanard!
20. Act 2. Nessuno! Respiro!

CD2

1. Act 3. L'anno muore
2. Act 3. Ah! Lasciami!
3. Act 3. No! No! Non è più Flamen
4. Act 3. Ah! Il suo nome!
5. Act 3. E quando mezzanotte scocca
Исполнители:
Pietro Mascagni - Lodoletta
opera in 3 acts
Giuliana Tavolaccini - Lodoletta
Giuseppe Campora - Flamen
Giulio Fioravanti - Gianetto
Antonio Cassinelli - Antonio
Miti Truccato Pace - Woman
Amalia Oliva - Maud
Antonio Sacchetti - Franz
Gina Ercole Mannucci - La Vanard
Mario Carlin - Tenor Voice
RAI Chorus
RAI Orchestra
Alberto Paoletti 1957
Bonus Tracks:
Leyla Gencer_Amadeo Zambon: Cavalleria rusticana
6. Tu qui santuzza?
Orchestra & Chorus di Teatro San Carlo, Umberto Cattia 1971
Ettore Bastianni
7. Cavalleria rusticana, Il cavallo scalpita
8. Cavalleria rusticana, Oh! Il Signore vi manda, compar Alfio
9. L' amico Fritz, Per voi, ghiottoni inutile
10. Lodoletta, Tel dissi, Lodoletta
11. Le maschere, Quelle è una strada
Marcella Pobbe_Pier Miranda Ferraro_Orazio Gualtiero: Isabeau, final scene
12. Son dolorosa, ed il perché non so'
13. Dormivi
14. Fu vile l'editto
15. I tuoi occhi!
16. Ah, per mia fe'
Orchestra Sinfonica di San Remo, Tullio Serafin 1962

Лог создания рипа

CD1

Exact Audio Copy V1.0 beta 3 from 29. August 2011
EAC extraction logfile from 19. August 2014, 18:30
Mascagni / Lodoletta, Paoletti CD1
Used drive : TS8XDVDSTRANSCEND Adapter: 1 ID: 1
Read mode : Secure
Utilize accurate stream : Yes
Defeat audio cache : Yes
Make use of C2 pointers : No
Read offset correction : 6
Overread into Lead-In and Lead-Out : No
Fill up missing offset samples with silence : Yes
Delete leading and trailing silent blocks : No
Null samples used in CRC calculations : Yes
Used interface : Native Win32 interface for Win NT & 2000
Used output format : Monkey's Audio Lossless Encoder
Selected bitrate : High Lossless Compression
Quality : High
Add ID3 tag : No
Command line compressor : C:\Program Files (x86)\Exact Audio Copy\MAC\MAC.exe
TOC of the extracted CD
Track | Start | Length | Start sector | End sector
---------------------------------------------------------
1 | 0:00.00 | 2:10.15 | 0 | 9764
2 | 2:10.15 | 3:21.67 | 9765 | 24906
3 | 5:32.07 | 2:13.43 | 24907 | 34924
4 | 7:45.50 | 4:44.30 | 34925 | 56254
5 | 12:30.05 | 2:26.62 | 56255 | 67266
6 | 14:56.67 | 2:16.18 | 67267 | 77484
7 | 17:13.10 | 3:25.67 | 77485 | 92926
8 | 20:39.02 | 1:24.03 | 92927 | 99229
9 | 22:03.05 | 0:52.65 | 99230 | 103194
10 | 22:55.70 | 1:51.35 | 103195 | 111554
11 | 24:47.30 | 2:35.67 | 111555 | 123246
12 | 27:23.22 | 2:14.18 | 123247 | 133314
13 | 29:37.40 | 9:35.27 | 133315 | 176466
14 | 39:12.67 | 3:54.25 | 176467 | 194041
15 | 43:07.17 | 2:36.48 | 194042 | 205789
16 | 45:43.65 | 2:07.70 | 205790 | 215384
17 | 47:51.60 | 4:41.57 | 215385 | 236516
18 | 52:33.42 | 4:31.48 | 236517 | 256889
19 | 57:05.15 | 7:57.47 | 256890 | 292711
20 | 65:02.62 | 5:54.13 | 292712 | 319274
Range status and errors
Selected range
Filename D:\EAC\Mascagni - Lodoletta, Paoletti CD1.wav
Peak level 64.7 %
Extraction speed 3.2 X
Range quality 100.0 %
Test CRC 3AAA90F3
Copy CRC 3AAA90F3
Copy OK
No errors occurred
AccurateRip summary
Track 1 accurately ripped (confidence 2) [0035676D] (AR v1)
Track 2 accurately ripped (confidence 2) [02C491C0] (AR v1)
Track 3 accurately ripped (confidence 2) [C0591095] (AR v1)
Track 4 accurately ripped (confidence 2) [744EADE1] (AR v1)
Track 5 accurately ripped (confidence 2) [959167B7] (AR v1)
Track 6 accurately ripped (confidence 2) [34596D30] (AR v1)
Track 7 accurately ripped (confidence 2) [37B64DCD] (AR v1)
Track 8 accurately ripped (confidence 2) [28742967] (AR v1)
Track 9 accurately ripped (confidence 2) [DE29AF5D] (AR v1)
Track 10 accurately ripped (confidence 2) [9B1704E1] (AR v1)
Track 11 accurately ripped (confidence 2) [856D4535] (AR v1)
Track 12 accurately ripped (confidence 2) [968876FF] (AR v1)
Track 13 accurately ripped (confidence 2) [54C18CEF] (AR v1)
Track 14 accurately ripped (confidence 2) [C96E5C37] (AR v1)
Track 15 accurately ripped (confidence 2) [E4B58245] (AR v1)
Track 16 accurately ripped (confidence 2) [6243E28A] (AR v1)
Track 17 accurately ripped (confidence 2) [66663172] (AR v1)
Track 18 accurately ripped (confidence 1) [99AA52C2] (AR v1)
Track 19 accurately ripped (confidence 2) [D6E325D9] (AR v1)
Track 20 accurately ripped (confidence 2) [C16ADC03] (AR v1)
All tracks accurately ripped
End of status report
---- CUETools DB Plugin V2.1.3
[CTDB TOCID: UZpU.X781CgCwBeN58XwNqnviyA-] disk not present in database, Submit result: unrecognized or virtual drive
==== Log checksum 3F0B751726ED93822344C71A4D5A9F2D6A04D59111CC5F81D4172C10DE55D921 ====

CD2

Exact Audio Copy V1.0 beta 3 from 29. August 2011
EAC extraction logfile from 19. August 2014, 18:16
Mascagni / Lodoletta, Paoletti CD2
Used drive : TSSTcorpCDDVDW SE-208AB Adapter: 1 ID: 0
Read mode : Secure
Utilize accurate stream : Yes
Defeat audio cache : Yes
Make use of C2 pointers : No
Read offset correction : 6
Overread into Lead-In and Lead-Out : No
Fill up missing offset samples with silence : Yes
Delete leading and trailing silent blocks : No
Null samples used in CRC calculations : Yes
Used interface : Native Win32 interface for Win NT & 2000
Used output format : Monkey's Audio Lossless Encoder
Selected bitrate : High Lossless Compression
Quality : High
Add ID3 tag : No
Command line compressor : C:\Program Files (x86)\Exact Audio Copy\MAC\MAC.exe
TOC of the extracted CD
Track | Start | Length | Start sector | End sector
---------------------------------------------------------
1 | 0:00.00 | 6:25.15 | 0 | 28889
2 | 6:25.15 | 6:56.55 | 28890 | 60144
3 | 13:21.70 | 2:26.22 | 60145 | 71116
4 | 15:48.17 | 11:25.15 | 71117 | 122506
5 | 27:13.32 | 3:08.33 | 122507 | 136639
6 | 30:21.65 | 9:32.50 | 136640 | 179589
7 | 39:54.40 | 2:41.07 | 179590 | 191671
8 | 42:35.47 | 5:17.30 | 191672 | 215476
9 | 47:53.02 | 1:13.53 | 215477 | 221004
10 | 49:06.55 | 2:54.62 | 221005 | 234116
11 | 52:01.42 | 2:45.03 | 234117 | 246494
12 | 54:46.45 | 4:25.50 | 246495 | 266419
13 | 59:12.20 | 3:16.00 | 266420 | 281119
14 | 62:28.20 | 3:27.07 | 281120 | 296651
15 | 65:55.27 | 5:14.00 | 296652 | 320201
16 | 71:09.27 | 3:04.35 | 320202 | 334036
Range status and errors
Selected range
Filename D:\EAC\Mascagni - Lodoletta, Paoletti CD2.wav
Peak level 91.4 %
Extraction speed 5.1 X
Range quality 100.0 %
Test CRC 33DE9F6E
Copy CRC 33DE9F6E
Copy OK
No errors occurred
AccurateRip summary
Track 1 accurately ripped (confidence 2) [964ADE86] (AR v1)
Track 2 accurately ripped (confidence 2) [1ED2E675] (AR v1)
Track 3 accurately ripped (confidence 2) [A66FDF16] (AR v1)
Track 4 accurately ripped (confidence 2) [EF0610EB] (AR v1)
Track 5 accurately ripped (confidence 2) [441EE6AA] (AR v1)
Track 6 accurately ripped (confidence 2) [9CF91359] (AR v1)
Track 7 accurately ripped (confidence 2) [DDF35F59] (AR v1)
Track 8 accurately ripped (confidence 2) [0F811479] (AR v1)
Track 9 accurately ripped (confidence 2) [4BAAC38C] (AR v1)
Track 10 accurately ripped (confidence 2) [5476E33C] (AR v1)
Track 11 accurately ripped (confidence 2) [FD0A88F1] (AR v1)
Track 12 accurately ripped (confidence 2) [EB0D83A4] (AR v1)
Track 13 accurately ripped (confidence 2) [9127AE31] (AR v1)
Track 14 accurately ripped (confidence 2) [4B577530] (AR v1)
Track 15 accurately ripped (confidence 2) [CB1201C5] (AR v1)
Track 16 accurately ripped (confidence 2) [9E8D01B3] (AR v1)
All tracks accurately ripped
End of status report
---- CUETools DB Plugin V2.1.3
[CTDB TOCID: 466QfqllYfzke5m0V2xPdaZSmZQ-] disk not present in database, Submit result: 466QfqllYfzke5m0V2xPdaZSmZQ- has been uploaded
==== Log checksum 6B58BC402F08D50291AFF39041E9F02F8173BEAEB113396F4D345BCB55FAAAF9 ====

Содержание индексной карты (.CUE)

CD1

REM GENRE Opera
REM DATE 1957
REM DISCID 3110A114
REM COMMENT "ExactAudioCopy v1.0b3"
PERFORMER "Mascagni "
TITLE "Lodoletta, Paoletti CD1"
FILE "Mascagni - Lodoletta, Paoletti CD1.ape" WAVE
TRACK 01 AUDIO
TITLE "Act 1. Ah! Cercalo, cercalo!"
PERFORMER "Mascagni "
INDEX 01 00:00:00
TRACK 02 AUDIO
TITLE "Act 1. Grazie, comari"
PERFORMER "Mascagni "
INDEX 01 02:10:15
TRACK 03 AUDIO
TITLE "Act 1. Ferma! Ferma!"
PERFORMER "Mascagni "
INDEX 01 05:32:07
TRACK 04 AUDIO
TITLE "Act 1. Piango sulla tua tomba!"
PERFORMER "Mascagni "
INDEX 01 07:45:50
TRACK 05 AUDIO
TITLE "Act 1. Dicon che a far denari"
PERFORMER "Mascagni "
INDEX 01 12:30:05
TRACK 06 AUDIO
TITLE "Act 1. Serenata delle fate"
PERFORMER "Mascagni "
INDEX 01 14:56:67
TRACK 07 AUDIO
TITLE "Act 1. Ah! Voi cantate meglio delle fate"
PERFORMER "Mascagni "
INDEX 01 17:13:10
TRACK 08 AUDIO
TITLE "Act 1. Lodoletta"
PERFORMER "Mascagni "
INDEX 01 20:39:02
TRACK 09 AUDIO
TITLE "Act 1. A voi, bambini"
PERFORMER "Mascagni "
INDEX 01 22:03:05
TRACK 10 AUDIO
TITLE "Act 1. Antonio"
PERFORMER "Mascagni "
INDEX 01 22:55:70
TRACK 11 AUDIO
TITLE "Act 1. Povero Antonio"
PERFORMER "Mascagni "
INDEX 01 24:47:30
TRACK 12 AUDIO
TITLE "Act 1. No, comari"
PERFORMER "Mascagni "
INDEX 01 27:23:22
TRACK 13 AUDIO
TITLE "Act 1. È qui"
PERFORMER "Mascagni "
INDEX 01 29:37:40
TRACK 14 AUDIO
TITLE "Act 2. Oggi sarai finita"
PERFORMER "Mascagni "
INDEX 00 39:09:12
INDEX 01 39:12:67
TRACK 15 AUDIO
TITLE "Act 2. All'alba di Novembre"
PERFORMER "Mascagni "
INDEX 01 43:07:17
TRACK 16 AUDIO
TITLE "Act 2. Bu! Bu! Bu Malandrini"
PERFORMER "Mascagni "
INDEX 01 45:43:65
TRACK 17 AUDIO
TITLE "Act 2. Che mattinata grigia"
PERFORMER "Mascagni "
INDEX 01 47:51:60
TRACK 18 AUDIO
TITLE "Act 2. Ah! Signor Flamen!"
PERFORMER "Mascagni "
INDEX 01 52:33:42
TRACK 19 AUDIO
TITLE "Act 2. Perchè? Perchè? Vanard!"
PERFORMER "Mascagni "
INDEX 01 57:05:15
TRACK 20 AUDIO
TITLE "Act 2. Nessuno! Respiro!"
PERFORMER "Mascagni "
INDEX 01 65:02:62

CD2

REM GENRE Opera
REM DATE 1957
REM DISCID 03116510
REM COMMENT "ExactAudioCopy v1.0b3"
PERFORMER "Mascagni "
TITLE "Lodoletta, Paoletti CD2"
FILE "Mascagni - Lodoletta, Paoletti CD2.ape" WAVE
TRACK 01 AUDIO
TITLE "Act 3. L'anno muore"
PERFORMER "Mascagni "
INDEX 01 00:00:00
TRACK 02 AUDIO
TITLE "Act 3. Ah! Lasciami!"
PERFORMER "Mascagni "
INDEX 01 06:25:15
TRACK 03 AUDIO
TITLE "Act 3. No! No! Non è più Flamen"
PERFORMER "Mascagni "
INDEX 01 13:21:70
TRACK 04 AUDIO
TITLE "Act 3. Ah! Il suo nome!"
PERFORMER "Mascagni "
INDEX 01 15:48:17
TRACK 05 AUDIO
TITLE "Act 3. E quando mezzanotte scocca"
PERFORMER "Mascagni "
INDEX 01 27:13:32
TRACK 06 AUDIO
TITLE "Leyla Gencer_Amadeo Zambon: Cavalleria rusticana, Tu qui santuzza?"
PERFORMER "Mascagni "
INDEX 00 30:15:32
INDEX 01 30:21:65
TRACK 07 AUDIO
TITLE "Ettore Bastianni: Cavalleria rusticana, Il cavallo scalpita"
PERFORMER "Mascagni "
INDEX 00 39:52:67
INDEX 01 39:54:40
TRACK 08 AUDIO
TITLE "Oh! Il Signore vi manda, compar Alfio"
PERFORMER "Mascagni "
INDEX 00 42:28:67
INDEX 01 42:35:47
TRACK 09 AUDIO
TITLE "L' amico Fritz, Per voi, ghiottoni inutile"
PERFORMER "Mascagni "
INDEX 00 47:48:52
INDEX 01 47:53:02
TRACK 10 AUDIO
TITLE "Lodoletta, Tel dissi, Lodoletta"
PERFORMER "Mascagni "
INDEX 00 49:02:17
INDEX 01 49:06:55
TRACK 11 AUDIO
TITLE "Le maschere, Quelle è una strada"
PERFORMER "Mascagni "
INDEX 00 51:54:17
INDEX 01 52:01:42
TRACK 12 AUDIO
TITLE "Pobbe_Ferraro_Gualtiero: Isabeau, Son dolorosa, ed il perché non so'"
PERFORMER "Mascagni "
INDEX 00 54:42:10
INDEX 01 54:46:45
TRACK 13 AUDIO
TITLE "Dormivi"
PERFORMER "Mascagni "
INDEX 01 59:12:20
TRACK 14 AUDIO
TITLE "Fu vile l'editto"
PERFORMER "Mascagni "
INDEX 01 62:28:20
TRACK 15 AUDIO
TITLE "I tuoi occhi!"
PERFORMER "Mascagni "
INDEX 01 65:55:27
TRACK 16 AUDIO
TITLE "Ah, per mia fe'"
PERFORMER "Mascagni "
INDEX 01 71:09:27



Показать сообщения:    

Текущее время: 06-Дек 13:15

Часовой пояс: UTC + 3


Вы не можете начинать темы
Вы не можете отвечать на сообщения
Вы не можете редактировать свои сообщения
Вы не можете удалять свои сообщения
Вы не можете голосовать в опросах
Вы не можете прикреплять файлы к сообщениям
Вы не можете скачивать файлы