Ветер / Wind (Роберт Лёбель / Robert Löbel) [2012, Германия, авторская анимация, WEBRip]


 

[Цитировать]

Ветер / Wind
Страна: Германия
Жанр: авторская анимация
Год выпуска: 2012
Продолжительность: 00:03:49
Перевод: Не требуется
Cубтитры: нет
Режиссёр: Роберт Лёбель / Robert Löbel
Описание: Действие фильма происходит в мире, где постоянно дует сильный ветер. Впрочем, жители этого мира научились довольно ловко к нему приспосабливаться. Но что будет, если ветер вдруг прекратится?
Доп. информация: 20 фестивальных наград
Качество видео: WEBRip
Формат видео: AVI
Видео: 1747 kbps, 720х400 (16:9), 25.000 fps, MPEG-4 Visual (XviD)
Аудио: 128 kbps, 48.0 kHz, 2 channels, MPEG Audio (MP3)

MediaInfo

General
Complete name : Wind (2012).avi
Format : AVI
Format/Info : Audio Video Interleave
File size : 51.5 MiB
Duration : 3mn 49s
Overall bit rate : 1 885 Kbps
Writing application : VirtualDubMod 1.5.10.3 (build 2550/release)
Writing library : VirtualDubMod build 2550/release
Video
ID : 0
Format : MPEG-4 Visual
Format profile : Advanced Simple@L5
Format settings, BVOP : 2
Format settings, QPel : No
Format settings, GMC : No warppoints
Format settings, Matrix : Custom
Codec ID : XVID
Codec ID/Hint : XviD
Duration : 3mn 49s
Bit rate : 1 747 Kbps
Width : 720 pixels
Height : 400 pixels
Display aspect ratio : 16:9
Frame rate : 25.000 fps
Color space : YUV
Chroma subsampling : 4:2:0
Bit depth : 8 bits
Scan type : Progressive
Compression mode : Lossy
Bits/(Pixel*Frame) : 0.243
Stream size : 47.7 MiB (93%)
Writing library : XviD 65
Audio
ID : 1
Format : MPEG Audio
Format version : Version 1
Format profile : Layer 3
Mode : Joint stereo
Mode extension : MS Stereo
Codec ID : 55
Codec ID/Hint : MP3
Duration : 3mn 49s
Bit rate mode : Constant
Bit rate : 128 Kbps
Channel(s) : 2 channels
Sampling rate : 48.0 KHz
Compression mode : Lossy
Stream size : 3.49 MiB (7%)
Alignment : Aligned on interleaves
Interleave, duration : 40 ms (1.00 video frame)
Interleave, preload duration : 504 ms
Writing library : LAME3.99r
Encoding settings : -m j -V 4 -q 3 -lowpass 17 -b 128

Скриншот c названием фильма

Скриншоты




Показать сообщения:    

Текущее время: 10-Дек 07:57

Часовой пояс: UTC + 3


Вы не можете начинать темы
Вы не можете отвечать на сообщения
Вы не можете редактировать свои сообщения
Вы не можете удалять свои сообщения
Вы не можете голосовать в опросах
Вы не можете прикреплять файлы к сообщениям
Вы не можете скачивать файлы