(Classical, opera) Giuseppe Verdi - Giovanna d`Arco (Meli,Domingo,Netrebko/Нетребко,Dunz,Tagliavini;Philharmonia Chor Wien/Walter Zeh,Munchner Rundfunkorchester/Paolo Carignani) - 2014, FLAC (image+.cue) lossless


 

[Цитировать]

Giuseppe Verdi- Giovanna d`Arco
(Meli, Domingo, Netrebko, Dunz, Tagliavini;
Philharmonia Chor Wien/Walter Zeh,
Munchner Rundfunkorchester/Paolo Carignani)
Giuseppe Verdi (1813-1901) Жанр: Classical, opera
Страна-производитель диска: E.U.
Год издания диска: 2014
Издатель (лейбл): Deutsche Grammophon GmbH
Номер по каталогу: 00289 4792712
Дата записи: 8/ 2013
Аудиокодек: FLAC
Тип рипа: image+.cue
Битрейт аудио: lossless
Продолжительность: 01:04:44 + 00:44:05
Источник: JVA
Наличие сканов в содержимом раздачи: да
Треклист:
Giovanna d`Arco

CD 1 (Prologue & Act I) (01:04:44)

01. Sinfonia (07:25)
02. Prolog - Qual v'ha speme? (03:31)
03. Il re! - Nei suo bel volto (02:41)
04. Scotto una quercia parvemi (03:02)
05. V'ha dunque loco simile (02:39)
06. Rondo è letal, martiro il serto (01:35)
07. Gelo, terror m'invade (03:16)
08. Oh, ben s'addice questo torbido cielo (01:54)
09. Sempre all'alba ed alla sera (03:51)
10. Paventi, Carlo, tu forse? (00:57)
11. Tu sei bella (02:45)
12. Pronta sono! - Son guerriera (04:39)
13. Akt I - Ai lari! Alla patria (01:54)
14. questa rea che vi percuote (00:34)
15. Franco son io, ma in core (03:27)
16. So che per via dei triboli (02:13)
17. Qui! Qui! Dove piu s'aöre libero il cielo (02:44)
18. O fatidica foresta (02:22)
19. Ho risolto (03:00)
20. T'arretri e palpiti! (04:12)
21. Taci! - Le vie traboccano (01:28)
22. Vieni al tempio (04:23)

CD 2 (Act II & III) (0:44:05)

01. Akt 2 - Dal cielo a noi chi viene (02:23)
02. Ecco il luogo e il momento! (00:59)
03. Speme al vecchio era una figlia (03:02)
04. Te, Dio, lodiam (01:16)
05. Compiuto è il rito (03:41)
06. No, forme d'angelo non son la vesta (04:11)
07. Ti discolpa! - Fuggi, o donna maledetta (03:25)
08. Akt 3 - I Franchi! I Franchi! (01:27)
09. A lui pensa! - Amai, ma un solo istante (05:09)
10. Tu che all'eletto Saulo (01:04)
11. Or dal padre benedetta (02:17)
12. Ecco! Ella vola - Presa è la rocca! (00:58)
13. Di novel prodigio il ciel ne arrise (01:45)
14. Quale piu fido amico (02:45)
15. Un suon funereo d'intorno spandesi (02:17)
16. Che mai fu? - S'apre il ciel (07:16)
Исполнители:
Carlo VII Francesco Meli
Giacomo Plácido Domingo
Giovanna Anna Netrebko
Delil Johannes Dunz
Talbot Roberto Tagliavini

Philharmonia Chor Wien
chorus master: Walter Zeh
Münchner Rundfunkorchester
Paolo Carignani

Лог создания рипаCD 1

Exact Audio Copy V0.99 prebeta 5 from 4. May 2009
Отчёт EAC об извлечении, выполненном 3. октября 2014, 12:02
Carignani, Netrebko, Meli, Domingo, Dunz, Tagliavini / Giovanna d'Arco Prolog & Akt 1
Дисковод: ATAPI iHAS124 E Adapter: 0 ID: 0
Режим чтения : Достоверность
Использование точного потока : Да
Отключение кэша аудио : Да
Использование указателей C2 : Нет
Коррекция смещения при чтении : 6
Способность читать области Lead-in и Lead-out : Нет
Заполнение пропущенных сэмплов тишиной : Да
Удаление блоков с тишиной в начале и конце : Нет
При вычислениях CRC использовались нулевые сэмплы : Да
Интерфейс : Встроенный Win32-интерфейс для Win NT/2000
Выходной формат : Пользовательский кодировщик
Выбранный битрейт : 768 kBit/s
Качество : Высокий
Добавление ID3-тэга : Нет
Утилита сжатия : C:\Program Files\Exact Audio Copy\Flac\flac.exe
Дополнительные параметры : -6 -V -T "ARTIST=%a" -T "TITLE=%t" -T "ALBUM=%g" -T "DATE=%y" -T "TRACKNUMBER=%n" -T "GENRE=%m" -T "COMMENT=%e" %s -o %d
TOC извлечённого CD
Трек | Старт | Длительность | Начальный сектор | Конечный сектор
---------------------------------------------------------------------
1 | 0:00.00 | 7:25.13 | 0 | 33387
2 | 7:25.13 | 3:31.47 | 33388 | 49259
3 | 10:56.60 | 2:41.19 | 49260 | 61353
4 | 13:38.04 | 3:02.07 | 61354 | 75010
5 | 16:40.11 | 2:39.20 | 75011 | 86955
6 | 19:19.31 | 1:35.36 | 86956 | 94116
7 | 20:54.67 | 3:16.29 | 94117 | 108845
8 | 24:11.21 | 1:54.15 | 108846 | 117410
9 | 26:05.36 | 3:51.62 | 117411 | 134797
10 | 29:57.23 | 0:57.17 | 134798 | 139089
11 | 30:54.40 | 2:45.46 | 139090 | 151510
12 | 33:40.11 | 4:39.53 | 151511 | 172488
13 | 38:19.64 | 1:54.71 | 172489 | 181109
14 | 40:14.60 | 0:34.11 | 181110 | 183670
15 | 40:48.71 | 3:27.26 | 183671 | 199221
16 | 44:16.22 | 2:13.05 | 199222 | 209201
17 | 46:29.27 | 2:44.13 | 209202 | 221514
18 | 49:13.40 | 2:22.54 | 221515 | 232218
19 | 51:36.19 | 3:00.36 | 232219 | 245754
20 | 54:36.55 | 4:12.37 | 245755 | 264691
21 | 58:49.17 | 1:28.66 | 264692 | 271357
22 | 60:18.08 | 4:23.45 | 271358 | 291127
Характеристики диапазона извлечения и сообщения об ошибках
Выбранный диапазон
Имя файла C:\EAC\Netrebko_Domingo - Giovanna d'Arco 2CD\Netrebko_Domingo - Giovanna d'Arco CD1\Netrebko_Domingo - Giovanna d'Arco CD1.wav
Пиковый уровень 100.0 %
Качество диапазона 100.0 %
CRC копии 6B32A678
Копирование... OK
Ошибок не произошло
AccurateRip: сводка
Трек 1 нет в базе данных
Трек 2 нет в базе данных
Трек 3 нет в базе данных
Трек 4 нет в базе данных
Трек 5 нет в базе данных
Трек 6 нет в базе данных
Трек 7 нет в базе данных
Трек 8 нет в базе данных
Трек 9 нет в базе данных
Трек 10 нет в базе данных
Трек 11 нет в базе данных
Трек 12 нет в базе данных
Трек 13 нет в базе данных
Трек 14 нет в базе данных
Трек 15 нет в базе данных
Трек 16 нет в базе данных
Трек 17 нет в базе данных
Трек 18 нет в базе данных
Трек 19 нет в базе данных
Трек 20 нет в базе данных
Трек 21 нет в базе данных
Трек 22 нет в базе данных
Ни одного трека нет в базе AccurateRip
Конец отчёта

CD 2

Exact Audio Copy V0.99 prebeta 5 from 4. May 2009
Отчёт EAC об извлечении, выполненном 3. октября 2014, 12:37
Carignani, Netrebko, Meli, Domingo, Dunz, Tagliavini / Giovanna d'Arco Akt 2 & 3
Дисковод: ATAPI iHAS124 E Adapter: 0 ID: 0
Режим чтения : Достоверность
Использование точного потока : Да
Отключение кэша аудио : Да
Использование указателей C2 : Нет
Коррекция смещения при чтении : 6
Способность читать области Lead-in и Lead-out : Нет
Заполнение пропущенных сэмплов тишиной : Да
Удаление блоков с тишиной в начале и конце : Нет
При вычислениях CRC использовались нулевые сэмплы : Да
Интерфейс : Встроенный Win32-интерфейс для Win NT/2000
Выходной формат : Пользовательский кодировщик
Выбранный битрейт : 768 kBit/s
Качество : Высокий
Добавление ID3-тэга : Нет
Утилита сжатия : C:\Program Files\Exact Audio Copy\Flac\flac.exe
Дополнительные параметры : -6 -V -T "ARTIST=%a" -T "TITLE=%t" -T "ALBUM=%g" -T "DATE=%y" -T "TRACKNUMBER=%n" -T "GENRE=%m" -T "COMMENT=%e" %s -o %d
TOC извлечённого CD
Трек | Старт | Длительность | Начальный сектор | Конечный сектор
---------------------------------------------------------------------
1 | 0:00.00 | 2:23.44 | 0 | 10768
2 | 2:23.44 | 0:59.09 | 10769 | 15202
3 | 3:22.53 | 3:02.60 | 15203 | 28912
4 | 6:25.38 | 1:16.57 | 28913 | 34669
5 | 7:42.20 | 3:41.37 | 34670 | 51281
6 | 11:23.57 | 4:11.64 | 51282 | 70170
7 | 15:35.46 | 3:25.47 | 70171 | 85592
8 | 19:01.18 | 1:27.03 | 85593 | 92120
9 | 20:28.21 | 5:09.21 | 92121 | 115316
10 | 25:37.42 | 1:04.29 | 115317 | 120145
11 | 26:41.71 | 2:17.16 | 120146 | 130436
12 | 28:59.12 | 0:58.51 | 130437 | 134837
13 | 29:57.63 | 1:45.43 | 134838 | 142755
14 | 31:43.31 | 2:45.24 | 142756 | 155154
15 | 34:28.55 | 2:17.55 | 155155 | 165484
16 | 36:46.35 | 7:16.43 | 165485 | 198227
Характеристики диапазона извлечения и сообщения об ошибках
Выбранный диапазон
Имя файла C:\EAC\Netrebko_Domingo - Giovanna d'Arco 2CD\Netrebko_Domingo - Giovanna d'Arco CD2\Netrebko_Domingo - Giovanna d'Arco CD2.wav
Пиковый уровень 99.3 %
Качество диапазона 100.0 %
CRC копии 648E7EF1
Копирование... OK
Ошибок не произошло
AccurateRip: сводка
Трек 1 нет в базе данных
Трек 2 нет в базе данных
Трек 3 нет в базе данных
Трек 4 нет в базе данных
Трек 5 нет в базе данных
Трек 6 нет в базе данных
Трек 7 нет в базе данных
Трек 8 нет в базе данных
Трек 9 нет в базе данных
Трек 10 нет в базе данных
Трек 11 нет в базе данных
Трек 12 нет в базе данных
Трек 13 нет в базе данных
Трек 14 нет в базе данных
Трек 15 нет в базе данных
Трек 16 нет в базе данных
Ни одного трека нет в базе AccurateRip
Конец отчёта

Лог проверки качества


Скриншот спектра частот




Показать сообщения:    

Текущее время: 04-Дек 21:23

Часовой пояс: UTC + 3


Вы не можете начинать темы
Вы не можете отвечать на сообщения
Вы не можете редактировать свои сообщения
Вы не можете удалять свои сообщения
Вы не можете голосовать в опросах
Вы не можете прикреплять файлы к сообщениям
Вы не можете скачивать файлы