(Classical) Eduard Franck - Piano Trios - Swiss Piano Trio (Анжела Голубева, Sebastien Singer, Martin Lucas Staub) - 2014, FLAC (tracks+.cue) lossless


 

[Цитировать]

Eduard Franck - Piano Trios - Swiss Piano Trio (Анжела Голубева, Sebastien Singer, Martin Lucas Staub)
Жанр: Classical
Страна-производитель диска: Germany
Год издания диска: 2014
Издатель (лейбл): Audite
Номер по каталогу: 97.690
Дата записи: 2013
Аудиокодек: FLAC
Тип рипа: tracks+.cue
Битрейт аудио: lossless
Продолжительность: 01:14:18
Источник: avaxhome
Наличие сканов в содержимом раздачи: да
Треклист:
Trio for piano, violin and cello in E major:
01. I. Allegro
02. II. Andante
03. III. Scherzo
04. IV. Presto
Trio for piano, violin and cello in E-flat major, Op. 22:
05. I. Allegro moderato con espressione
06. II. Scherzo
07. III. Andante con moto
08. IV. Allegro molto vivace
Trio for piano, violin and cello in D major, Op. 53:
09. I. Allegro
10. II. Allegro vivace
11. III. Andante
12. IV. Allegro con fuoco (Finale)
Исполнители:
Swiss Piano Trio:
Анжела Голубева (violin)
Sebastien Singer (cello)
Martin Lucas Staub (piano)

Лог создания рипа

Exact Audio Copy V1.0 beta 3 from 29. August 2011
EAC extraction logfile from 7. May 2014, 23:32
Eduard Franck / Piano Trios
Used drive : TSSTcorpCDDVDW SH-216AB Adapter: 1 ID: 0
Read mode : Secure
Utilize accurate stream : Yes
Defeat audio cache : Yes
Make use of C2 pointers : No
Read offset correction : 6
Overread into Lead-In and Lead-Out : No
Fill up missing offset samples with silence : Yes
Delete leading and trailing silent blocks : No
Null samples used in CRC calculations : Yes
Used interface : Native Win32 interface for Win NT & 2000
Gap handling : Appended to previous track
Used output format : User Defined Encoder
Selected bitrate : 768 kBit/s
Quality : High
Add ID3 tag : No
Command line compressor : C:\Program Files (x86)\Exact Audio Copy\FLAC\FLAC.EXE
Additional command line options : -6 -V -T "ARTIST=%artist%" -T "TITLE=%title%" -T "ALBUM=%albumtitle%" -T "DATE=%year%" -T "TRACKNUMBER=%tracknr%" -T "GENRE=%genre%" -T "COMMENT=%comment%" -T "BAND=%albuminterpret%" -T "ALBUMARTIST=%albuminterpret%" -T "COMPOSER=%composer%" %haslyrics%--tag-from-file=LYRICS="%lyricsfile%"%haslyrics% -T "DISCNUMBER=%cdnumber%" -T "TOTALDISCS=%totalcds%" -T "TOTALTRACKS=%numtracks%" %hascover%--picture="%coverfile%"%hascover% %source% -o %dest%
TOC of the extracted CD
Track | Start | Length | Start sector | End sector
---------------------------------------------------------
1 | 0:00.00 | 7:35.46 | 0 | 34170
2 | 7:35.46 | 4:34.48 | 34171 | 54768
3 | 12:10.19 | 3:41.28 | 54769 | 71371
4 | 15:51.47 | 5:01.31 | 71372 | 93977
5 | 20:53.03 | 9:09.57 | 93978 | 135209
6 | 30:02.60 | 4:58.27 | 135210 | 157586
7 | 35:01.12 | 7:54.55 | 157587 | 193191
8 | 42:55.67 | 5:55.31 | 193192 | 219847
9 | 48:51.23 | 8:35.27 | 219848 | 258499
10 | 57:26.50 | 4:22.38 | 258500 | 278187
11 | 61:49.13 | 6:04.33 | 278188 | 305520
12 | 67:53.46 | 6:25.66 | 305521 | 334461
Track 1
Filename C:\Users\astarte\03. POST\Franck, Eduard - piano trios\01. Trio for piano, violin and cello in E major I. Allegro.wav
Pre-gap length 0:00:02.00
Peak level 96.8 %
Extraction speed 5.4 X
Track quality 100.0 %
Copy CRC 9C598199
Track not present in AccurateRip database
Copy OK
Track 2
Filename C:\Users\astarte\03. POST\Franck, Eduard - piano trios\02. Trio for piano, violin and cello in E major II. Andante.wav
Peak level 81.4 %
Extraction speed 5.8 X
Track quality 100.0 %
Copy CRC 0E5A011F
Track not present in AccurateRip database
Copy OK
Track 3
Filename C:\Users\astarte\03. POST\Franck, Eduard - piano trios\03. Trio for piano, violin and cello in E major III. Scherzo.wav
Peak level 93.0 %
Extraction speed 6.0 X
Track quality 100.0 %
Copy CRC B584F294
Track not present in AccurateRip database
Copy OK
Track 4
Filename C:\Users\astarte\03. POST\Franck, Eduard - piano trios\04. Trio for piano, violin and cello in E major IV. Presto.wav
Peak level 96.9 %
Extraction speed 5.6 X
Track quality 99.9 %
Copy CRC 3A011604
Track not present in AccurateRip database
Copy OK
Track 5
Filename C:\Users\astarte\03. POST\Franck, Eduard - piano trios\05. Trio for piano, violin and cello in E-flat major, Op. 22 I. Allegro moderato con espressione.wav
Pre-gap length 0:00:02.97
Peak level 96.9 %
Extraction speed 6.8 X
Track quality 99.9 %
Copy CRC F2FCA1AA
Track not present in AccurateRip database
Copy OK
Track 6
Filename C:\Users\astarte\03. POST\Franck, Eduard - piano trios\06. Trio for piano, violin and cello in E-flat major, Op. 22 II. Scherzo.wav
Peak level 96.8 %
Extraction speed 7.5 X
Track quality 100.0 %
Copy CRC 843EAEA4
Track not present in AccurateRip database
Copy OK
Track 7
Filename C:\Users\astarte\03. POST\Franck, Eduard - piano trios\07. Trio for piano, violin and cello in E-flat major, Op. 22 III. Andante con moto.wav
Peak level 72.8 %
Extraction speed 7.6 X
Track quality 99.9 %
Copy CRC D3AC8297
Track not present in AccurateRip database
Copy OK
Track 8
Filename C:\Users\astarte\03. POST\Franck, Eduard - piano trios\08. Trio for piano, violin and cello in E-flat major, Op. 22 IV. Allegro molto vivace.wav
Peak level 96.9 %
Extraction speed 8.5 X
Track quality 100.0 %
Copy CRC 5B3E7BC5
Track not present in AccurateRip database
Copy OK
Track 9
Filename C:\Users\astarte\03. POST\Franck, Eduard - piano trios\09. Trio for piano, violin and cello in D major, Op. 53 I. Allegro.wav
Pre-gap length 0:00:03.08
Peak level 96.9 %
Extraction speed 9.5 X
Track quality 100.0 %
Copy CRC 6166F999
Track not present in AccurateRip database
Copy OK
Track 10
Filename C:\Users\astarte\03. POST\Franck, Eduard - piano trios\10. Trio for piano, violin and cello in D major, Op. 53 II. Allegro vivace.wav
Peak level 96.8 %
Extraction speed 9.1 X
Track quality 100.0 %
Copy CRC 41259769
Track not present in AccurateRip database
Copy OK
Track 11
Filename C:\Users\astarte\03. POST\Franck, Eduard - piano trios\11. Trio for piano, violin and cello in D major, Op. 53 III. Andante.wav
Peak level 94.4 %
Extraction speed 9.8 X
Track quality 100.0 %
Copy CRC 825D4F91
Track not present in AccurateRip database
Copy OK
Track 12
Filename C:\Users\astarte\03. POST\Franck, Eduard - piano trios\12. Trio for piano, violin and cello in D major, Op. 53 IV. Allegro con fuoco (Finale).wav
Peak level 96.9 %
Extraction speed 10.2 X
Track quality 100.0 %
Copy CRC 63A8D5AC
Track not present in AccurateRip database
Copy OK
None of the tracks are present in the AccurateRip database
No errors occurred
End of status report
==== Log checksum F1E4782569DA1061E33007F3FBCD434EC90B4CD0877E056FB25CF833DDE0DB0B ====
------------------------------------------------------------
Exact Audio Copy V1.0 beta 3 from 29. August 2011
EAC extraction logfile from 7. May 2014, 23:32
Eduard Franck / Piano Trios
Used drive : TSSTcorpCDDVDW SH-216AB Adapter: 1 ID: 0
Read mode : Secure
Utilize accurate stream : Yes
Defeat audio cache : Yes
Make use of C2 pointers : No
Read offset correction : 6
Overread into Lead-In and Lead-Out : No
Fill up missing offset samples with silence : Yes
Delete leading and trailing silent blocks : No
Null samples used in CRC calculations : Yes
Used interface : Native Win32 interface for Win NT & 2000
Gap handling : Appended to previous track
Used output format : User Defined Encoder
Selected bitrate : 768 kBit/s
Quality : High
Add ID3 tag : No
Command line compressor : C:\Program Files (x86)\Exact Audio Copy\FLAC\FLAC.EXE
Additional command line options : -6 -V -T "ARTIST=%artist%" -T "TITLE=%title%" -T "ALBUM=%albumtitle%" -T "DATE=%year%" -T "TRACKNUMBER=%tracknr%" -T "GENRE=%genre%" -T "COMMENT=%comment%" -T "BAND=%albuminterpret%" -T "ALBUMARTIST=%albuminterpret%" -T "COMPOSER=%composer%" %haslyrics%--tag-from-file=LYRICS="%lyricsfile%"%haslyrics% -T "DISCNUMBER=%cdnumber%" -T "TOTALDISCS=%totalcds%" -T "TOTALTRACKS=%numtracks%" %hascover%--picture="%coverfile%"%hascover% %source% -o %dest%
TOC of the extracted CD
Track | Start | Length | Start sector | End sector
---------------------------------------------------------
1 | 0:00.00 | 7:35.46 | 0 | 34170
2 | 7:35.46 | 4:34.48 | 34171 | 54768
3 | 12:10.19 | 3:41.28 | 54769 | 71371
4 | 15:51.47 | 5:01.31 | 71372 | 93977
5 | 20:53.03 | 9:09.57 | 93978 | 135209
6 | 30:02.60 | 4:58.27 | 135210 | 157586
7 | 35:01.12 | 7:54.55 | 157587 | 193191
8 | 42:55.67 | 5:55.31 | 193192 | 219847
9 | 48:51.23 | 8:35.27 | 219848 | 258499
10 | 57:26.50 | 4:22.38 | 258500 | 278187
11 | 61:49.13 | 6:04.33 | 278188 | 305520
12 | 67:53.46 | 6:25.66 | 305521 | 334461
Track 1
Filename C:\Users\astarte\03. POST\Franck, Eduard - piano trios\01. Trio for piano, violin and cello in E major I. Allegro.wav
Pre-gap length 0:00:02.00
Peak level 96.8 %
Extraction speed 5.4 X
Track quality 100.0 %
Copy CRC 9C598199
Track not present in AccurateRip database
Copy OK
Track 2
Filename C:\Users\astarte\03. POST\Franck, Eduard - piano trios\02. Trio for piano, violin and cello in E major II. Andante.wav
Peak level 81.4 %
Extraction speed 5.8 X
Track quality 100.0 %
Copy CRC 0E5A011F
Track not present in AccurateRip database
Copy OK
Track 3
Filename C:\Users\astarte\03. POST\Franck, Eduard - piano trios\03. Trio for piano, violin and cello in E major III. Scherzo.wav
Peak level 93.0 %
Extraction speed 6.0 X
Track quality 100.0 %
Copy CRC B584F294
Track not present in AccurateRip database
Copy OK
Track 4
Filename C:\Users\astarte\03. POST\Franck, Eduard - piano trios\04. Trio for piano, violin and cello in E major IV. Presto.wav
Peak level 96.9 %
Extraction speed 5.6 X
Track quality 99.9 %
Copy CRC 3A011604
Track not present in AccurateRip database
Copy OK
Track 5
Filename C:\Users\astarte\03. POST\Franck, Eduard - piano trios\05. Trio for piano, violin and cello in E-flat major, Op. 22 I. Allegro moderato con espressione.wav
Pre-gap length 0:00:02.97
Peak level 96.9 %
Extraction speed 6.8 X
Track quality 99.9 %
Copy CRC F2FCA1AA
Track not present in AccurateRip database
Copy OK
Track 6
Filename C:\Users\astarte\03. POST\Franck, Eduard - piano trios\06. Trio for piano, violin and cello in E-flat major, Op. 22 II. Scherzo.wav
Peak level 96.8 %
Extraction speed 7.5 X
Track quality 100.0 %
Copy CRC 843EAEA4
Track not present in AccurateRip database
Copy OK
Track 7
Filename C:\Users\astarte\03. POST\Franck, Eduard - piano trios\07. Trio for piano, violin and cello in E-flat major, Op. 22 III. Andante con moto.wav
Peak level 72.8 %
Extraction speed 7.6 X
Track quality 99.9 %
Copy CRC D3AC8297
Track not present in AccurateRip database
Copy OK
Track 8
Filename C:\Users\astarte\03. POST\Franck, Eduard - piano trios\08. Trio for piano, violin and cello in E-flat major, Op. 22 IV. Allegro molto vivace.wav
Peak level 96.9 %
Extraction speed 8.5 X
Track quality 100.0 %
Copy CRC 5B3E7BC5
Track not present in AccurateRip database
Copy OK
Track 9
Filename C:\Users\astarte\03. POST\Franck, Eduard - piano trios\09. Trio for piano, violin and cello in D major, Op. 53 I. Allegro.wav
Pre-gap length 0:00:03.08
Peak level 96.9 %
Extraction speed 9.5 X
Track quality 100.0 %
Copy CRC 6166F999
Track not present in AccurateRip database
Copy OK
Track 10
Filename C:\Users\astarte\03. POST\Franck, Eduard - piano trios\10. Trio for piano, violin and cello in D major, Op. 53 II. Allegro vivace.wav
Peak level 96.8 %
Extraction speed 9.1 X
Track quality 100.0 %
Copy CRC 41259769
Track not present in AccurateRip database
Copy OK
Track 11
Filename C:\Users\astarte\03. POST\Franck, Eduard - piano trios\11. Trio for piano, violin and cello in D major, Op. 53 III. Andante.wav
Peak level 94.4 %
Extraction speed 9.8 X
Track quality 100.0 %
Copy CRC 825D4F91
Track not present in AccurateRip database
Copy OK
Track 12
Filename C:\Users\astarte\03. POST\Franck, Eduard - piano trios\12. Trio for piano, violin and cello in D major, Op. 53 IV. Allegro con fuoco (Finale).wav
Peak level 96.9 %
Extraction speed 10.2 X
Track quality 100.0 %
Copy CRC 63A8D5AC
Track not present in AccurateRip database
Copy OK
None of the tracks are present in the AccurateRip database
No errors occurred
End of status report
==== Log checksum F1E4782569DA1061E33007F3FBCD434EC90B4CD0877E056FB25CF833DDE0DB0B ====

Содержание индексной карты (.CUE)

REM GENRE Classical
REM DATE 2014
REM DISCID A4116B0C
REM COMMENT "ExactAudioCopy v1.0b3"
PERFORMER "Eduard Franck"
TITLE "Piano Trios"
FILE "01. Trio for piano, violin and cello in E major I. Allegro.wav" WAVE
TRACK 01 AUDIO
TITLE "Trio for piano, violin and cello in E major I. Allegro"
PERFORMER "Eduard Franck"
ISRC DEE219769001
FLAGS DCP
INDEX 01 00:00:00
FILE "02. Trio for piano, violin and cello in E major II. Andante.wav" WAVE
TRACK 02 AUDIO
TITLE "Trio for piano, violin and cello in E major II. Andante"
PERFORMER "Eduard Franck"
ISRC DEE219769002
FLAGS DCP
INDEX 01 00:00:00
FILE "03. Trio for piano, violin and cello in E major III. Scherzo.wav" WAVE
TRACK 03 AUDIO
TITLE "Trio for piano, violin and cello in E major III. Scherzo"
PERFORMER "Eduard Franck"
ISRC DEE219769003
FLAGS DCP
INDEX 01 00:00:00
FILE "04. Trio for piano, violin and cello in E major IV. Presto.wav" WAVE
TRACK 04 AUDIO
TITLE "Trio for piano, violin and cello in E major IV. Presto"
PERFORMER "Eduard Franck"
ISRC DEE219769004
FLAGS DCP
INDEX 01 00:00:00
TRACK 05 AUDIO
TITLE "Trio for piano, violin and cello in E-flat major, Op. 22 I. Allegro moderato ..."
PERFORMER "Eduard Franck"
ISRC DEE219769005
FLAGS DCP
INDEX 00 04:58:33
FILE "05. Trio for piano, violin and cello in E-flat major, Op. 22 I. Allegro moderato con espressione.wav" WAVE
INDEX 01 00:00:00
FILE "06. Trio for piano, violin and cello in E-flat major, Op. 22 II. Scherzo.wav" WAVE
TRACK 06 AUDIO
TITLE "Trio for piano, violin and cello in E-flat major, Op. 22 II. Scherzo"
PERFORMER "Eduard Franck"
ISRC DEE219769005
FLAGS DCP
INDEX 01 00:00:00
FILE "07. Trio for piano, violin and cello in E-flat major, Op. 22 III. Andante con moto.wav" WAVE
TRACK 07 AUDIO
TITLE "Trio for piano, violin and cello in E-flat major, Op. 22 III. Andante con moto"
PERFORMER "Eduard Franck"
ISRC DEE219769007
FLAGS DCP
INDEX 01 00:00:00
FILE "08. Trio for piano, violin and cello in E-flat major, Op. 22 IV. Allegro molto vivace.wav" WAVE
TRACK 08 AUDIO
TITLE "Trio for piano, violin and cello in E-flat major, Op. 22 IV. Allegro molto vi..."
PERFORMER "Eduard Franck"
ISRC DEE219769008
FLAGS DCP
INDEX 01 00:00:00
TRACK 09 AUDIO
TITLE "Trio for piano, violin and cello in D major, Op. 53 I. Allegro"
PERFORMER "Eduard Franck"
ISRC DEE219769009
FLAGS DCP
INDEX 00 05:52:25
FILE "09. Trio for piano, violin and cello in D major, Op. 53 I. Allegro.wav" WAVE
INDEX 01 00:00:00
FILE "10. Trio for piano, violin and cello in D major, Op. 53 II. Allegro vivace.wav" WAVE
TRACK 10 AUDIO
TITLE "Trio for piano, violin and cello in D major, Op. 53 II. Allegro vivace"
PERFORMER "Eduard Franck"
ISRC DEE219769010
FLAGS DCP
INDEX 01 00:00:00
FILE "11. Trio for piano, violin and cello in D major, Op. 53 III. Andante.wav" WAVE
TRACK 11 AUDIO
TITLE "Trio for piano, violin and cello in D major, Op. 53 III. Andante"
PERFORMER "Eduard Franck"
ISRC DEE219769011
FLAGS DCP
INDEX 01 00:00:00
FILE "12. Trio for piano, violin and cello in D major, Op. 53 IV. Allegro con fuoco (Finale).wav" WAVE
TRACK 12 AUDIO
TITLE "Trio for piano, violin and cello in D major, Op. 53 IV. Allegro con fuoco (Fi..."
PERFORMER "Eduard Franck"
ISRC DEE219769011
FLAGS DCP
INDEX 01 00:00:00

Скриншот спектра частот




Показать сообщения:    

Текущее время: 04-Дек 11:14

Часовой пояс: UTC + 3


Вы не можете начинать темы
Вы не можете отвечать на сообщения
Вы не можете редактировать свои сообщения
Вы не можете удалять свои сообщения
Вы не можете голосовать в опросах
Вы не можете прикреплять файлы к сообщениям
Вы не можете скачивать файлы