(Classical/Orchestral) Brussels Philharmonic, Richard Egarr - An Evening With Leopold Stokowski (Stokowski, Egarr, Bach, Cesti, Handel, Ockeghem, Palestrina, Purcell, Чайкoвский) - 2010, FLAC (tracks+.cue) lossless


 

[Цитировать]

Leopold Stokowski - An Evening With Leopold Stokowski (Brussels Philharmonic, Richard Egarr)

Жанр: Classical/Orchestral
Год издания диска: 2010
Дата записи: 2008
Страна-производитель диска: Spain
Издатель (лейбл): Glossa
Номер по каталогу: GCDSA 922209
Штрихово́й код: 8424562222090
Аудиокодек: FLAC
Тип рипа: tracks+.cue
Битрейт аудио: lossless
Продолжительность: 68:23
Источник: собственный рип
Наличие сканов в содержимом раздачи: да

Треклист

Johann Sebastian BACH / Leopold STOKOWSKI
Toccata and Fugue in D minor:
01. Toccata [03:37]
02. Fugue [06:06]
Antonio CESTI / Leopold STOKOWSKI
03. Tu mancavi a tormentarmi [07:01]
Georg Friedrich HÄNDEL / Richard EGARR
Water Music Suite:
04. Prelude (Suite No. 2) [01:57]
05. Alla Hornpipe (Suite No. 2) [03:27]
06. Allegro (Suite No. 1) [04:10]
07. Menuet (Suite No. 2) [01:10]
08. Lentement (Suite No. 2) [02:26]
09. Bourrée (Suite No. 2) [01:54]
Johann Sebastian BACH / Leopold STOKOWSKI
Overture No. 3 in D major:
10. Aria [05:12]
Henry PURCELL / Leopold STOKOWSKI
Suite of Five Pieces:
11. I. (Trumpet tune) [01:27]
12. II. Echo (Pastorale) [02:34]
13. III. Hornpipe [01:11]
14. IV. When I am laid in Earth [03:38]
V. Largo and Allegro:
15. Va. Largo [01:50]
16. Vb. Allegro [01:14]
Giovanni DA PALESTRINA / Leopold STOKOWSKI
17. Adoramus te [02:54]
Johannes OCKEGHEM / Richard EGARR
18. Intemerata Dei Mater [06:55]
Pyotr Ilyich TCHAIKOVSKY
19. Slavonic March [09:30]

Исполнители:
Brussels Philharmonic, Richard EGARR

Лог ЕАС

Exact Audio Copy V1.0 beta 3 from 29. August 2011
EAC extraction logfile from 8. October 2014, 21:06
Richard EGARR / An Evening With Leopold Stokowski
Used drive : HL-DT-STDVDRAM GH24NS95 Adapter: 4 ID: 1
Read mode : Secure
Utilize accurate stream : Yes
Defeat audio cache : Yes
Make use of C2 pointers : No
Read offset correction : 6
Overread into Lead-In and Lead-Out : No
Fill up missing offset samples with silence : Yes
Delete leading and trailing silent blocks : No
Null samples used in CRC calculations : Yes
Used interface : Native Win32 interface for Win NT & 2000
Gap handling : Appended to previous track
Used output format : User Defined Encoder
Selected bitrate : 1024 kBit/s
Quality : High
Add ID3 tag : No
Command line compressor : C:\Program Files (x86)\Exact Audio Copy\FLAC\FLAC.EXE
Additional command line options : -8 -V -T "ARTIST=%artist%" -T "TITLE=%title%" -T "ALBUM=%albumtitle%" -T "DATE=%year%" -T "TRACKNUMBER=%tracknr%" -T "GENRE=%genre%" -T "COMMENT=%comment%" -T "BAND=%albuminterpret%" -T "ALBUMARTIST=%albuminterpret%" -T "COMPOSER=%composer%" %haslyrics%--tag-from-file=LYRICS="%lyricsfile%"%haslyrics% -T "DISCNUMBER=%cdnumber%" -T "TOTALDISCS=%totalcds%" -T "TOTALTRACKS=%numtracks%" %hascover%--picture="%coverfile%"%hascover% %source% -o %dest%
TOC of the extracted CD
Track | Start | Length | Start sector | End sector
---------------------------------------------------------
1 | 0:00.00 | 3:37.58 | 0 | 16332
2 | 3:37.58 | 6:06.58 | 16333 | 43840
3 | 9:44.41 | 7:01.02 | 43841 | 75417
4 | 16:45.43 | 1:57.25 | 75418 | 84217
5 | 18:42.68 | 3:27.67 | 84218 | 99809
6 | 22:10.60 | 4:10.54 | 99810 | 118613
7 | 26:21.39 | 1:10.63 | 118614 | 123926
8 | 27:32.27 | 2:26.45 | 123927 | 134921
9 | 29:58.72 | 1:54.55 | 134922 | 143526
10 | 31:53.52 | 5:12.58 | 143527 | 166984
11 | 37:06.35 | 1:27.31 | 166985 | 173540
12 | 38:33.66 | 2:34.31 | 173541 | 185121
13 | 41:08.22 | 1:11.66 | 185122 | 190512
14 | 42:20.13 | 3:38.12 | 190513 | 206874
15 | 45:58.25 | 1:50.61 | 206875 | 215185
16 | 47:49.11 | 1:14.19 | 215186 | 220754
17 | 49:03.30 | 2:54.43 | 220755 | 233847
18 | 51:57.73 | 6:55.47 | 233848 | 265019
19 | 58:53.45 | 9:30.16 | 265020 | 307785
Track 1
Filename S:\Richard EGARR\An Evening With Leopold Stokowski\01 - Toccata and Fugue in D minor; Toccata.wav
Pre-gap length 0:00:02.00
Peak level 96.3 %
Extraction speed 2.5 X
Track quality 99.9 %
Copy CRC 67538928
Accurately ripped (confidence 3) [F39BCC51] (AR v2)
Copy OK
Track 2
Filename S:\Richard EGARR\An Evening With Leopold Stokowski\02 - Toccata and Fugue in D minor; Fugue.wav
Peak level 96.3 %
Extraction speed 1.3 X
Track quality 100.0 %
Copy CRC B2C39EA1
Accurately ripped (confidence 3) [6BE52976] (AR v2)
Copy OK
Track 3
Filename S:\Richard EGARR\An Evening With Leopold Stokowski\03 - Tu mancavi a tormentarmi.wav
Pre-gap length 0:00:05.72
Peak level 51.8 %
Extraction speed 1.6 X
Track quality 100.0 %
Copy CRC 9F68256C
Accurately ripped (confidence 3) [7600677A] (AR v2)
Copy OK
Track 4
Filename S:\Richard EGARR\An Evening With Leopold Stokowski\04 - Water Music Suite; Prelude (Suite No. 2).wav
Pre-gap length 0:00:04.32
Peak level 95.9 %
Extraction speed 1.4 X
Track quality 100.0 %
Copy CRC A073B3EF
Accurately ripped (confidence 3) [C91AE252] (AR v2)
Copy OK
Track 5
Filename S:\Richard EGARR\An Evening With Leopold Stokowski\05 - Water Music Suite; Alla Hornpipe (Suite No. 2).wav
Peak level 59.8 %
Extraction speed 1.6 X
Track quality 100.0 %
Copy CRC 80A70BC6
Accurately ripped (confidence 3) [F9829C34] (AR v2)
Copy OK
Track 6
Filename S:\Richard EGARR\An Evening With Leopold Stokowski\06 - Water Music Suite; Allegro (Suite No. 1).wav
Peak level 34.0 %
Extraction speed 1.7 X
Track quality 100.0 %
Copy CRC C95BAA6E
Accurately ripped (confidence 3) [F3F79D5D] (AR v2)
Copy OK
Track 7
Filename S:\Richard EGARR\An Evening With Leopold Stokowski\07 - Water Music Suite; Menuet (Suite No. 2).wav
Peak level 63.6 %
Extraction speed 1.3 X
Track quality 100.0 %
Copy CRC DD38F55F
Accurately ripped (confidence 3) [878D8EE2] (AR v2)
Copy OK
Track 8
Filename S:\Richard EGARR\An Evening With Leopold Stokowski\08 - Water Music Suite; Lentement (Suite No. 2).wav
Peak level 31.4 %
Extraction speed 1.6 X
Track quality 100.0 %
Copy CRC 3E3B6FA2
Accurately ripped (confidence 3) [C787FE7A] (AR v2)
Copy OK
Track 9
Filename S:\Richard EGARR\An Evening With Leopold Stokowski\09 - Water Music Suite; Bourrée (Suite No. 2).wav
Peak level 83.6 %
Extraction speed 1.6 X
Track quality 100.0 %
Copy CRC F2125C89
Accurately ripped (confidence 3) [2B96B3B0] (AR v2)
Copy OK
Track 10
Filename S:\Richard EGARR\An Evening With Leopold Stokowski\10 - Overture No. 3 in D major; Aria.wav
Pre-gap length 0:00:07.44
Peak level 42.7 %
Extraction speed 2.0 X
Track quality 100.0 %
Copy CRC B6371C34
Accurately ripped (confidence 3) [FEDF5E50] (AR v2)
Copy OK
Track 11
Filename S:\Richard EGARR\An Evening With Leopold Stokowski\11 - Suite of Five Pieces; I. (Trumpet tune).wav
Pre-gap length 0:00:03.18
Peak level 96.1 %
Extraction speed 1.6 X
Track quality 100.0 %
Copy CRC A05D4583
Accurately ripped (confidence 3) [1E664DDD] (AR v2)
Copy OK
Track 12
Filename S:\Richard EGARR\An Evening With Leopold Stokowski\12 - Suite of Five Pieces; II. Echo (Pastorale).wav
Peak level 22.3 %
Extraction speed 1.9 X
Track quality 100.0 %
Copy CRC C38B4CEA
Accurately ripped (confidence 3) [727B120F] (AR v2)
Copy OK
Track 13
Filename S:\Richard EGARR\An Evening With Leopold Stokowski\13 - Suite of Five Pieces; III. Hornpipe.wav
Pre-gap length 0:00:02.71
Peak level 48.5 %
Extraction speed 1.6 X
Track quality 100.0 %
Copy CRC 7C99A92A
Accurately ripped (confidence 3) [265524A6] (AR v2)
Copy OK
Track 14
Filename S:\Richard EGARR\An Evening With Leopold Stokowski\14 - Suite of Five Pieces; IV. When I am laid in Earth.wav
Peak level 40.7 %
Extraction speed 2.0 X
Track quality 100.0 %
Copy CRC 3F1FB24E
Accurately ripped (confidence 3) [14B50CF0] (AR v2)
Copy OK
Track 15
Filename S:\Richard EGARR\An Evening With Leopold Stokowski\15 - Suite of Five Pieces; V. Largo and Allegro; Largo.wav
Peak level 52.4 %
Extraction speed 1.8 X
Track quality 100.0 %
Copy CRC AB90988B
Accurately ripped (confidence 3) [19B670F2] (AR v2)
Copy OK
Track 16
Filename S:\Richard EGARR\An Evening With Leopold Stokowski\16 - Suite of Five Pieces; V. Largo and Allegro; Allegro.wav
Peak level 96.4 %
Extraction speed 1.6 X
Track quality 100.0 %
Copy CRC 71101332
Accurately ripped (confidence 3) [D8B27476] (AR v2)
Copy OK
Track 17
Filename S:\Richard EGARR\An Evening With Leopold Stokowski\17 - Adoramus te.wav
Pre-gap length 0:00:04.55
Peak level 56.4 %
Extraction speed 2.0 X
Track quality 100.0 %
Copy CRC B275E7C3
Accurately ripped (confidence 3) [17586142] (AR v2)
Copy OK
Track 18
Filename S:\Richard EGARR\An Evening With Leopold Stokowski\18 - Intemerata Dei Mater.wav
Pre-gap length 0:00:04.05
Peak level 93.1 %
Extraction speed 2.2 X
Track quality 99.9 %
Copy CRC 9C50FE50
Accurately ripped (confidence 3) [9E5B360D] (AR v2)
Copy OK
Track 19
Filename S:\Richard EGARR\An Evening With Leopold Stokowski\19 - Slavonic March.wav
Pre-gap length 0:00:06.10
Peak level 98.4 %
Extraction speed 2.6 X
Track quality 100.0 %
Copy CRC B480F7F8
Accurately ripped (confidence 3) [B7508238] (AR v2)
Copy OK
All tracks accurately ripped
No errors occurred
End of status report
---- CUETools DB Plugin V2.1.5
[CTDB TOCID: qH6xq_UJAV61SJxuzU9mnLrVIJ4-] found
Submit result: qH6xq_UJAV61SJxuzU9mnLrVIJ4- has been confirmed
Track | CTDB Status
1 | (1/1) Accurately ripped
2 | (1/1) Accurately ripped
3 | (1/1) Accurately ripped
4 | (1/1) Accurately ripped
5 | (1/1) Accurately ripped
6 | (1/1) Accurately ripped
7 | (1/1) Accurately ripped
8 | (1/1) Accurately ripped
9 | (1/1) Accurately ripped
10 | (1/1) Accurately ripped
11 | (1/1) Accurately ripped
12 | (1/1) Accurately ripped
13 | (1/1) Accurately ripped
14 | (1/1) Accurately ripped
15 | (1/1) Accurately ripped
16 | (1/1) Accurately ripped
17 | (1/1) Accurately ripped
18 | (1/1) Accurately ripped
19 | (1/1) Accurately ripped
==== Log checksum 72278826395508CFE46181D7D035A51FF9B769D68BAED64DB9435F4A78396AEE ====

CUE

REM GENRE Classical
REM DATE 2010
REM DISCID FA100713
REM COMMENT "ExactAudioCopy v1.0b3"
CATALOG 8424562222090
PERFORMER "Richard EGARR"
TITLE "An Evening With Leopold Stokowski"
FILE "01 - Toccata and Fugue in D minor; Toccata.flac" WAVE
TRACK 01 AUDIO
TITLE "Toccata and Fugue in D minor: Toccata"
PERFORMER "Richard EGARR"
ISRC ES7891002201
INDEX 01 00:00:00
FILE "02 - Toccata and Fugue in D minor; Fugue.flac" WAVE
TRACK 02 AUDIO
TITLE "Toccata and Fugue in D minor: Fugue"
PERFORMER "Richard EGARR"
ISRC ES7891002202
INDEX 01 00:00:00
TRACK 03 AUDIO
TITLE "Tu mancavi a tormentarmi"
PERFORMER "Richard EGARR"
ISRC ES7891002203
INDEX 00 06:00:61
FILE "03 - Tu mancavi a tormentarmi.flac" WAVE
INDEX 01 00:00:00
TRACK 04 AUDIO
TITLE "Water Music Suite: Prelude (Suite No. 2)"
PERFORMER "Richard EGARR"
ISRC ES7891002204
INDEX 00 06:56:45
FILE "04 - Water Music Suite; Prelude (Suite No. 2).flac" WAVE
INDEX 01 00:00:00
FILE "05 - Water Music Suite; Alla Hornpipe (Suite No. 2).flac" WAVE
TRACK 05 AUDIO
TITLE "Water Music Suite: Alla Hornpipe (Suite No. 2)"
PERFORMER "Richard EGARR"
ISRC ES7891002205
INDEX 01 00:00:00
FILE "06 - Water Music Suite; Allegro (Suite No. 1).flac" WAVE
TRACK 06 AUDIO
TITLE "Water Music Suite: Allegro (Suite No. 1)"
PERFORMER "Richard EGARR"
ISRC ES7891002206
INDEX 01 00:00:00
FILE "07 - Water Music Suite; Menuet (Suite No. 2).flac" WAVE
TRACK 07 AUDIO
TITLE "Water Music Suite: Menuet (Suite No. 2)"
PERFORMER "Richard EGARR"
ISRC ES7891002207
INDEX 01 00:00:00
FILE "08 - Water Music Suite; Lentement (Suite No. 2).flac" WAVE
TRACK 08 AUDIO
TITLE "Water Music Suite: Lentement (Suite No. 2)"
PERFORMER "Richard EGARR"
ISRC ES7891002208
INDEX 01 00:00:00
FILE "09 - Water Music Suite; Bourrée (Suite No. 2).flac" WAVE
TRACK 09 AUDIO
TITLE "Water Music Suite: Bourrée (Suite No. 2)"
PERFORMER "Richard EGARR"
ISRC ES7891002209
INDEX 01 00:00:00
TRACK 10 AUDIO
TITLE "Overture No. 3 in D major: Aria"
PERFORMER "Richard EGARR"
ISRC ES7891002210
INDEX 00 01:47:11
FILE "10 - Overture No. 3 in D major; Aria.flac" WAVE
INDEX 01 00:00:00
TRACK 11 AUDIO
TITLE "Suite of Five Pieces: I. (Trumpet tune)"
PERFORMER "Richard EGARR"
ISRC ES7891002211
INDEX 00 05:09:40
FILE "11 - Suite of Five Pieces; I. (Trumpet tune).flac" WAVE
INDEX 01 00:00:00
FILE "12 - Suite of Five Pieces; II. Echo (Pastorale).flac" WAVE
TRACK 12 AUDIO
TITLE "Suite of Five Pieces: II. Echo (Pastorale)"
PERFORMER "Richard EGARR"
ISRC ES7891002212
INDEX 01 00:00:00
TRACK 13 AUDIO
TITLE "Suite of Five Pieces: III. Hornpipe"
PERFORMER "Richard EGARR"
ISRC ES7891002213
INDEX 00 02:31:35
FILE "13 - Suite of Five Pieces; III. Hornpipe.flac" WAVE
INDEX 01 00:00:00
FILE "14 - Suite of Five Pieces; IV. When I am laid in Earth.flac" WAVE
TRACK 14 AUDIO
TITLE "Suite of Five Pieces: IV. When I am laid in Earth"
PERFORMER "Richard EGARR"
ISRC ES7891002214
INDEX 01 00:00:00
FILE "15 - Suite of Five Pieces; V. Largo and Allegro; Largo.flac" WAVE
TRACK 15 AUDIO
TITLE "Suite of Five Pieces: V. Largo and Allegro: Largo"
PERFORMER "Richard EGARR"
ISRC ES7891002215
INDEX 01 00:00:00
FILE "16 - Suite of Five Pieces; V. Largo and Allegro; Allegro.flac" WAVE
TRACK 16 AUDIO
TITLE "Suite of Five Pieces: V. Largo and Allegro: Allegro"
PERFORMER "Richard EGARR"
ISRC ES7891002216
INDEX 01 00:00:00
TRACK 17 AUDIO
TITLE "Adoramus te"
PERFORMER "Richard EGARR"
ISRC ES7891002217
INDEX 00 01:09:39
FILE "17 - Adoramus te.flac" WAVE
INDEX 01 00:00:00
TRACK 18 AUDIO
TITLE "Intemerata Dei Mater"
PERFORMER "Richard EGARR"
ISRC ES7891002218
INDEX 00 02:50:38
FILE "18 - Intemerata Dei Mater.flac" WAVE
INDEX 01 00:00:00
TRACK 19 AUDIO
TITLE "Slavonic March"
PERFORMER "Richard EGARR"
ISRC ES7891002219
INDEX 00 06:49:37
FILE "19 - Slavonic March.flac" WAVE
INDEX 01 00:00:00



Показать сообщения:    

Текущее время: 08-Дек 07:09

Часовой пояс: UTC + 3


Вы не можете начинать темы
Вы не можете отвечать на сообщения
Вы не можете редактировать свои сообщения
Вы не можете удалять свои сообщения
Вы не можете голосовать в опросах
Вы не можете прикреплять файлы к сообщениям
Вы не можете скачивать файлы