(Classical) Antonio Vivaldi - Concerti(RV 114,119, 121, 127,152,156,157,163,167) e sinfonie(111a,146,168) per archi ( Venice Baroque Orchestra/ Andrea Marcon) - 2006, FLAC (image+.cue) lossless


 

[Цитировать]

Antonio Vivaldi- Concerti(RV 114,119, 121, 127,152,156,157,163,167) e sinfonie(111a,146,168) per archi ( Venice Baroque Orchestra/ Andrea Marcon)Antonio Vivaldi (1678 - 1741) Жанр: Classical
Страна-производитель диска: E.U.
Год издания диска: 2006
Издатель (лейбл): Deutsche Grammophon GmbH
Номер по каталогу: 00289 474 5092
Дата записи: 10/2003
Аудиокодек: FLAC
Тип рипа: image+.cue
Битрейт аудио: lossless
Продолжительность: 01:07:36
Источник: JVA
Наличие сканов в содержимом раздачи: да
Треклист:
Sinfonia in C major, RV111a
01. I. Allegro 02:16
02. II. Andante 02:43
03. III. Presto 01:05
Concerto in G minor, RV157
04. I. Allegro 01:51
05. II. Largo 01:36
06. III. Allegro 02:00
Concerto in D minor, RV127
07. I. Allegro 01:19
08. II. Largo 01:25
09. III. Allegro 01:07
Sinfonia in B minor, RV168
10. I. Allegro 02:08
11. II. Andante 02:44
12. III. Allegro 00:57
Concerto in C major, RV114
13. I. Allegro 02:22
14. II. Adagio 00:21
15. III. Ciaccona 03:24
Concerto in G minor, RV152
16. I. Allegro molto 01:40
17. II. Andante molto 02:23
18. III. Allegro molto 01:47
Concerto in D major, RV121
19. I. Allegro molto 01:54
20. II. Adagio 02:06
21. III. (Allegro) 01:53
Concerto in B flat major "Conca", RV163
22. I. (Allegro) - Allegro molto 01:46
23. II. Andante 00:56
24. III. Allegro 01:01
Concerto in C minor, RV119
25. I. Allegro 02:14
26. II. Largo 02:03
27. III. Allegro 01:22
Concerto in G minor, RV156
28. I. Allegro 02:34
29. II. Adagio 02:11
30. III. Allegro 01:26
Concerto in B flat major, RV167
31. I. Allegro 01:43
32. II. Andante 02:36
33. III. Allegro 01:12
Sinfonia in G major, RV146
34. I. Allegro 02:04
35. II. Andante 03:54
36. III. Presto 01:17
Исполнители:
Venice Baroque Orchestra/ Andrea Marcon

Лог создания рипа

Exact Audio Copy V0.99 prebeta 5 from 4. May 2009
Отчёт EAC об извлечении, выполненном 17. сентября 2014, 17:03
Andrea Marcon - Venice Baroque Orchestra / Vivaldi: Concerti e sinfonie per archi
Дисковод: ATAPI iHAS124 E Adapter: 0 ID: 0
Режим чтения : Достоверность
Использование точного потока : Да
Отключение кэша аудио : Да
Использование указателей C2 : Нет
Коррекция смещения при чтении : 6
Способность читать области Lead-in и Lead-out : Нет
Заполнение пропущенных сэмплов тишиной : Да
Удаление блоков с тишиной в начале и конце : Нет
При вычислениях CRC использовались нулевые сэмплы : Да
Интерфейс : Встроенный Win32-интерфейс для Win NT/2000
Выходной формат : Пользовательский кодировщик
Выбранный битрейт : 768 kBit/s
Качество : Высокий
Добавление ID3-тэга : Нет
Утилита сжатия : C:\Program Files\Exact Audio Copy\Flac\flac.exe
Дополнительные параметры : -6 -V -T "ARTIST=%a" -T "TITLE=%t" -T "ALBUM=%g" -T "DATE=%y" -T "TRACKNUMBER=%n" -T "GENRE=%m" -T "COMMENT=%e" %s -o %d
TOC извлечённого CD
Трек | Старт | Длительность | Начальный сектор | Конечный сектор
---------------------------------------------------------------------
1 | 0:00.00 | 2:16.18 | 0 | 10217
2 | 2:16.18 | 2:43.12 | 10218 | 22454
3 | 4:59.30 | 1:05.69 | 22455 | 27398
4 | 6:05.24 | 1:51.09 | 27399 | 35732
5 | 7:56.33 | 1:36.51 | 35733 | 42983
6 | 9:33.09 | 2:00.48 | 42984 | 52031
7 | 11:33.57 | 1:19.06 | 52032 | 57962
8 | 12:52.63 | 1:25.21 | 57963 | 64358
9 | 14:18.09 | 1:07.45 | 64359 | 69428
10 | 15:25.54 | 2:08.69 | 69429 | 79097
11 | 17:34.48 | 2:44.57 | 79098 | 91454
12 | 20:19.30 | 0:57.57 | 91455 | 95786
13 | 21:17.12 | 2:22.32 | 95787 | 106468
14 | 23:39.44 | 0:21.26 | 106469 | 108069
15 | 24:00.70 | 3:24.26 | 108070 | 123395
16 | 27:25.21 | 1:40.63 | 123396 | 130958
17 | 29:06.09 | 2:23.12 | 130959 | 141695
18 | 31:29.21 | 1:47.11 | 141696 | 149731
19 | 33:16.32 | 1:54.19 | 149732 | 158300
20 | 35:10.51 | 2:06.21 | 158301 | 167771
21 | 37:16.72 | 1:53.34 | 167772 | 176280
22 | 39:10.31 | 1:46.34 | 176281 | 184264
23 | 40:56.65 | 0:56.00 | 184265 | 188464
24 | 41:52.65 | 1:01.29 | 188465 | 193068
25 | 42:54.19 | 2:14.44 | 193069 | 203162
26 | 45:08.63 | 2:03.54 | 203163 | 212441
27 | 47:12.42 | 1:22.14 | 212442 | 218605
28 | 48:34.56 | 2:34.08 | 218606 | 230163
29 | 51:08.64 | 2:11.25 | 230164 | 240013
30 | 53:20.14 | 1:26.69 | 240014 | 246532
31 | 54:47.08 | 1:43.01 | 246533 | 254258
32 | 56:30.09 | 2:36.21 | 254259 | 265979
33 | 59:06.30 | 1:12.60 | 265980 | 271439
34 | 60:19.15 | 2:04.18 | 271440 | 280757
35 | 62:23.33 | 3:54.61 | 280758 | 298368
36 | 66:18.19 | 1:17.19 | 298369 | 304162
Характеристики диапазона извлечения и сообщения об ошибках
Выбранный диапазон
Имя файла C:\EAC\Vivaldi Concerti e sinfonie per archi\Vivaldi Concerti e sinfonie per archi.wav
Пиковый уровень 96.3 %
Качество диапазона 99.9 %
CRC копии 12821E1B
Копирование... OK
Ошибок не произошло
AccurateRip: сводка
Трек 1 точное извлечение (доверие 24) [A3CBF89C]
Трек 2 точное извлечение (доверие 24) [85DFC79A]
Трек 3 точное извлечение (доверие 24) [E7978201]
Трек 4 точное извлечение (доверие 24) [47BD4235]
Трек 5 точное извлечение (доверие 24) [03081C83]
Трек 6 точное извлечение (доверие 24) [45FFA981]
Трек 7 точное извлечение (доверие 24) [AC7658F8]
Трек 8 точное извлечение (доверие 24) [C45C0E4C]
Трек 9 точное извлечение (доверие 24) [1513B4E2]
Трек 10 точное извлечение (доверие 24) [1A3B674D]
Трек 11 точное извлечение (доверие 24) [69B472B8]
Трек 12 точное извлечение (доверие 24) [9333D29C]
Трек 13 точное извлечение (доверие 24) [269354E5]
Трек 14 точное извлечение (доверие 24) [517A6132]
Трек 15 точное извлечение (доверие 24) [77C8F18A]
Трек 16 точное извлечение (доверие 24) [BB0C343D]
Трек 17 точное извлечение (доверие 23) [A02AA57D]
Трек 18 точное извлечение (доверие 24) [6209C583]
Трек 19 точное извлечение (доверие 24) [A911348F]
Трек 20 точное извлечение (доверие 24) [CDCF9E7D]
Трек 21 точное извлечение (доверие 24) [CAE737F2]
Трек 22 точное извлечение (доверие 24) [D23BD9C7]
Трек 23 точное извлечение (доверие 24) [F11A108A]
Трек 24 точное извлечение (доверие 24) [450BA24A]
Трек 25 точное извлечение (доверие 24) [35AD61A0]
Трек 26 точное извлечение (доверие 24) [BF4BA9B0]
Трек 27 точное извлечение (доверие 24) [BE260F90]
Трек 28 точное извлечение (доверие 24) [3ECD340A]
Трек 29 точное извлечение (доверие 24) [2AC92617]
Трек 30 точное извлечение (доверие 24) [AABD3A8A]
Трек 31 точное извлечение (доверие 24) [4336DE10]
Трек 32 точное извлечение (доверие 24) [80A2613B]
Трек 33 точное извлечение (доверие 24) [09E908BD]
Трек 34 точное извлечение (доверие 24) [E7F20B5D]
Трек 35 точное извлечение (доверие 24) [A8A7DD5F]
Трек 36 точное извлечение (доверие 23) [8DC1BDDC]
Все треки извлечены точно
Конец отчёта
------------------------------------------------------------
Exact Audio Copy V0.99 prebeta 5 from 4. May 2009
Отчёт EAC об извлечении, выполненном 17. сентября 2014, 17:03
Andrea Marcon - Venice Baroque Orchestra / Vivaldi: Concerti e sinfonie per archi
Дисковод: ATAPI iHAS124 E Adapter: 0 ID: 0
Режим чтения : Достоверность
Использование точного потока : Да
Отключение кэша аудио : Да
Использование указателей C2 : Нет
Коррекция смещения при чтении : 6
Способность читать области Lead-in и Lead-out : Нет
Заполнение пропущенных сэмплов тишиной : Да
Удаление блоков с тишиной в начале и конце : Нет
При вычислениях CRC использовались нулевые сэмплы : Да
Интерфейс : Встроенный Win32-интерфейс для Win NT/2000
Выходной формат : Пользовательский кодировщик
Выбранный битрейт : 768 kBit/s
Качество : Высокий
Добавление ID3-тэга : Нет
Утилита сжатия : C:\Program Files\Exact Audio Copy\Flac\flac.exe
Дополнительные параметры : -6 -V -T "ARTIST=%a" -T "TITLE=%t" -T "ALBUM=%g" -T "DATE=%y" -T "TRACKNUMBER=%n" -T "GENRE=%m" -T "COMMENT=%e" %s -o %d
TOC извлечённого CD
Трек | Старт | Длительность | Начальный сектор | Конечный сектор
---------------------------------------------------------------------
1 | 0:00.00 | 2:16.18 | 0 | 10217
2 | 2:16.18 | 2:43.12 | 10218 | 22454
3 | 4:59.30 | 1:05.69 | 22455 | 27398
4 | 6:05.24 | 1:51.09 | 27399 | 35732
5 | 7:56.33 | 1:36.51 | 35733 | 42983
6 | 9:33.09 | 2:00.48 | 42984 | 52031
7 | 11:33.57 | 1:19.06 | 52032 | 57962
8 | 12:52.63 | 1:25.21 | 57963 | 64358
9 | 14:18.09 | 1:07.45 | 64359 | 69428
10 | 15:25.54 | 2:08.69 | 69429 | 79097
11 | 17:34.48 | 2:44.57 | 79098 | 91454
12 | 20:19.30 | 0:57.57 | 91455 | 95786
13 | 21:17.12 | 2:22.32 | 95787 | 106468
14 | 23:39.44 | 0:21.26 | 106469 | 108069
15 | 24:00.70 | 3:24.26 | 108070 | 123395
16 | 27:25.21 | 1:40.63 | 123396 | 130958
17 | 29:06.09 | 2:23.12 | 130959 | 141695
18 | 31:29.21 | 1:47.11 | 141696 | 149731
19 | 33:16.32 | 1:54.19 | 149732 | 158300
20 | 35:10.51 | 2:06.21 | 158301 | 167771
21 | 37:16.72 | 1:53.34 | 167772 | 176280
22 | 39:10.31 | 1:46.34 | 176281 | 184264
23 | 40:56.65 | 0:56.00 | 184265 | 188464
24 | 41:52.65 | 1:01.29 | 188465 | 193068
25 | 42:54.19 | 2:14.44 | 193069 | 203162
26 | 45:08.63 | 2:03.54 | 203163 | 212441
27 | 47:12.42 | 1:22.14 | 212442 | 218605
28 | 48:34.56 | 2:34.08 | 218606 | 230163
29 | 51:08.64 | 2:11.25 | 230164 | 240013
30 | 53:20.14 | 1:26.69 | 240014 | 246532
31 | 54:47.08 | 1:43.01 | 246533 | 254258
32 | 56:30.09 | 2:36.21 | 254259 | 265979
33 | 59:06.30 | 1:12.60 | 265980 | 271439
34 | 60:19.15 | 2:04.18 | 271440 | 280757
35 | 62:23.33 | 3:54.61 | 280758 | 298368
36 | 66:18.19 | 1:17.19 | 298369 | 304162
Характеристики диапазона извлечения и сообщения об ошибках
Выбранный диапазон
Имя файла C:\EAC\Vivaldi Concerti e sinfonie per archi\Vivaldi Concerti e sinfonie per archi.wav
Пиковый уровень 96.3 %
Качество диапазона 99.9 %
CRC копии 12821E1B
Копирование... OK
Ошибок не произошло
AccurateRip: сводка
Трек 1 точное извлечение (доверие 24) [A3CBF89C]
Трек 2 точное извлечение (доверие 24) [85DFC79A]
Трек 3 точное извлечение (доверие 24) [E7978201]
Трек 4 точное извлечение (доверие 24) [47BD4235]
Трек 5 точное извлечение (доверие 24) [03081C83]
Трек 6 точное извлечение (доверие 24) [45FFA981]
Трек 7 точное извлечение (доверие 24) [AC7658F8]
Трек 8 точное извлечение (доверие 24) [C45C0E4C]
Трек 9 точное извлечение (доверие 24) [1513B4E2]
Трек 10 точное извлечение (доверие 24) [1A3B674D]
Трек 11 точное извлечение (доверие 24) [69B472B8]
Трек 12 точное извлечение (доверие 24) [9333D29C]
Трек 13 точное извлечение (доверие 24) [269354E5]
Трек 14 точное извлечение (доверие 24) [517A6132]
Трек 15 точное извлечение (доверие 24) [77C8F18A]
Трек 16 точное извлечение (доверие 24) [BB0C343D]
Трек 17 точное извлечение (доверие 23) [A02AA57D]
Трек 18 точное извлечение (доверие 24) [6209C583]
Трек 19 точное извлечение (доверие 24) [A911348F]
Трек 20 точное извлечение (доверие 24) [CDCF9E7D]
Трек 21 точное извлечение (доверие 24) [CAE737F2]
Трек 22 точное извлечение (доверие 24) [D23BD9C7]
Трек 23 точное извлечение (доверие 24) [F11A108A]
Трек 24 точное извлечение (доверие 24) [450BA24A]
Трек 25 точное извлечение (доверие 24) [35AD61A0]
Трек 26 точное извлечение (доверие 24) [BF4BA9B0]
Трек 27 точное извлечение (доверие 24) [BE260F90]
Трек 28 точное извлечение (доверие 24) [3ECD340A]
Трек 29 точное извлечение (доверие 24) [2AC92617]
Трек 30 точное извлечение (доверие 24) [AABD3A8A]
Трек 31 точное извлечение (доверие 24) [4336DE10]
Трек 32 точное извлечение (доверие 24) [80A2613B]
Трек 33 точное извлечение (доверие 24) [09E908BD]
Трек 34 точное извлечение (доверие 24) [E7F20B5D]
Трек 35 точное извлечение (доверие 24) [A8A7DD5F]
Трек 36 точное извлечение (доверие 23) [8DC1BDDC]
Все треки извлечены точно
Конец отчёта

Лог проверки качества


Скриншот спектра частот




Показать сообщения:    

Текущее время: 07-Дек 23:19

Часовой пояс: UTC + 3


Вы не можете начинать темы
Вы не можете отвечать на сообщения
Вы не можете редактировать свои сообщения
Вы не можете удалять свои сообщения
Вы не можете голосовать в опросах
Вы не можете прикреплять файлы к сообщениям
Вы не можете скачивать файлы