(Classical, contemporary) Ksenija Sidorova - Classical accordion (Sacconi Quartet / Nordheim, Bach, Berio, Scarlatti, Mozart, Schnittke, Takahashi, Piazzolla) - 2011, FLAC (image+.cue) lossless


 

[Цитировать]

Ksenija Sidorova - Classical accordion
Жанр: Classical, contemporary
Страна-производитель диска: EU
Год издания диска: 2011
Издатель (лейбл): Champs Hill Records
Номер по каталогу: CHRCD019
Дата записи: 2010-2011
Аудиокодек: FLAC
Тип рипа: image+.cue
Битрейт аудио: lossless
Продолжительность: 01:08:28
Источник: собственный рип
Наличие сканов в содержимом раздачи: да
Треклист:
01. Arne Nordheim - Flashing
02. J.S.Bach - Overture in the French Style, BWV.831 (Adagio maestozo - Allegro - Adagio)
03. Luciano Berio - Sequenza XIII "Chanson"
Domenico Scarlatti
04. Sonata in D Minor, K.77 (Moderato e cantabile - Minuetto)
05. Sonata in D Major, K.33 (Allegro)
06. W.A.Mozart - 12 Variations "Ah, vous dirais-je, maman", K.265/300e
A.Schnittke - Revis Fairy Tale
07. Chichikov's Childhood
08. Officials
09. Waltz
10. Polka
Yuji Takahashi
11. Like a Water Buffalo (poem: Wendy Poussard)
12. Like a Water Buffalo
13. Astor Piazzolla - Five Tango Sensations - 1.Asleep
Исполнители:
Ksenija Sidorova - accordion
Sacconi Quartet:
Ben Hancox - violin
Hannah Dawson - violin
Robin Ashwell - viola
Cara Berridge - cello
Ksenija Sidorova - Fairytales (2013) http://teatrix.ru/viewtopic.php?t=4847933

Лог создания рипа

Exact Audio Copy V1.0 beta 3 from 29. August 2011
EAC extraction logfile from 5. April 2014, 19:00
Ksenija Sidorova / Classical Accordion
Used drive : PIONEER BD-RW BDR-206D Adapter: 1 ID: 1
Read mode : Secure
Utilize accurate stream : Yes
Defeat audio cache : Yes
Make use of C2 pointers : No
Read offset correction : 667
Overread into Lead-In and Lead-Out : No
Fill up missing offset samples with silence : Yes
Delete leading and trailing silent blocks : No
Null samples used in CRC calculations : Yes
Used interface : Native Win32 interface for Win NT & 2000
Used output format : User Defined Encoder
Selected bitrate : 1024 kBit/s
Quality : High
Add ID3 tag : No
Command line compressor : H:\Program Files\Exact Audio Copy\FLAC\FLAC.EXE
Additional command line options : -V -8 -T "Date=%year%" -T "Genre=%genre%" %source%
TOC of the extracted CD
Track | Start | Length | Start sector | End sector
---------------------------------------------------------
1 | 0:00.00 | 7:20.68 | 0 | 33067
2 | 7:20.68 | 7:04.30 | 33068 | 64897
3 | 14:25.23 | 9:14.47 | 64898 | 106494
4 | 23:39.70 | 5:09.36 | 106495 | 129705
5 | 28:49.31 | 3:11.52 | 129706 | 144082
6 | 32:01.08 | 8:44.61 | 144083 | 183443
7 | 40:45.69 | 2:09.22 | 183444 | 193140
8 | 42:55.16 | 2:21.71 | 193141 | 203786
9 | 45:17.12 | 3:15.30 | 203787 | 218441
10 | 48:32.42 | 2:32.56 | 218442 | 229897
11 | 51:05.23 | 1:01.47 | 229898 | 234519
12 | 52:06.70 | 9:30.24 | 234520 | 277293
13 | 61:37.19 | 6:50.54 | 277294 | 308097
Range status and errors
Selected range
Filename L:\Audio Lossless Latvija\Ksenija Sidorova. 2011 Classical Accordion\Ksenija Sidorova - Classical Accordion.wav
Peak level 99.1 %
Extraction speed 6.7 X
Range quality 100.0 %
Test CRC 3B96257D
Copy CRC 3B96257D
Copy OK
No errors occurred
AccurateRip summary
Track 1 accurately ripped (confidence 2) [D4DA0CB3] (AR v2)
Track 2 accurately ripped (confidence 2) [B76F3A79] (AR v2)
Track 3 accurately ripped (confidence 2) [6AFBD808] (AR v2)
Track 4 accurately ripped (confidence 2) [63726572] (AR v2)
Track 5 accurately ripped (confidence 2) [BA6EFCAF] (AR v2)
Track 6 accurately ripped (confidence 2) [4E342454] (AR v2)
Track 7 accurately ripped (confidence 2) [B5581424] (AR v2)
Track 8 accurately ripped (confidence 2) [5C21F278] (AR v2)
Track 9 accurately ripped (confidence 2) [26C5F4DA] (AR v2)
Track 10 accurately ripped (confidence 2) [03BA2652] (AR v2)
Track 11 accurately ripped (confidence 2) [065B5339] (AR v2)
Track 12 accurately ripped (confidence 2) [E8F1ED23] (AR v2)
Track 13 accurately ripped (confidence 2) [C10719A6] (AR v2)
All tracks accurately ripped
End of status report
==== Log checksum 832CB46864738776D319EB819D976BB69F2573541C09535E8148DFF52E6343F7 ====

Содержание индексной карты (.CUE)

REM GENRE Classical
REM DATE 2011
REM DISCID C6100B0D
REM COMMENT "ExactAudioCopy v1.0b3"
PERFORMER "Ksenija Sidorova"
TITLE "Classical Accordion"
FILE "Ksenija Sidorova - Classical Accordion.flac" WAVE
TRACK 01 AUDIO
TITLE "A.Nordheim. Flashing"
PERFORMER "Ksenija Sidorova"
INDEX 01 00:00:00
TRACK 02 AUDIO
TITLE "J.S.Bach. Overture in the French Style: Adagio maestoso - Allegro - Adagio"
PERFORMER "Ksenija Sidorova"
INDEX 01 07:20:68
TRACK 03 AUDIO
TITLE "L. Berio. Sequenza XIII 'Chanson'"
PERFORMER "Ksenija Sidorova"
INDEX 01 14:25:23
TRACK 04 AUDIO
TITLE "D.Scarlatti. Sonata in D minor: Moderato e cantabile - Minuetto"
PERFORMER "Ksenija Sidorova"
INDEX 01 23:39:70
TRACK 05 AUDIO
TITLE "D.Scarlatti. Sonata in D major: Allegro"
PERFORMER "Ksenija Sidorova"
INDEX 01 28:49:31
TRACK 06 AUDIO
TITLE "W.A.Mozart. 12 Variations 'Ah, vous dirais-je, maman'"
PERFORMER "Ksenija Sidorova"
INDEX 01 32:01:08
TRACK 07 AUDIO
TITLE "A.Schnittke. Revis Fairy Tale: 1. Chichikov's Childhood"
PERFORMER "Ksenija Sidorova"
INDEX 01 40:45:69
TRACK 08 AUDIO
TITLE "A.Schnittke. Revis Fairy Tale: 2. Officials"
PERFORMER "Ksenija Sidorova"
INDEX 01 42:55:16
TRACK 09 AUDIO
TITLE "A.Schnittke. Revis Fairy Tale: 3. Waltz"
PERFORMER "Ksenija Sidorova"
INDEX 01 45:17:12
TRACK 10 AUDIO
TITLE "A.Schnittke. Revis Fairy Tale: 4. Polka"
PERFORMER "Ksenija Sidorova"
INDEX 01 48:32:42
TRACK 11 AUDIO
TITLE "Y.Takahashi. Like a Water Buffalo (poem: Wendy Poussard)"
PERFORMER "Ksenija Sidorova"
INDEX 01 51:05:23
TRACK 12 AUDIO
TITLE "Y.Takahashi. Like a Water Buffalo"
PERFORMER "Ksenija Sidorova"
INDEX 01 52:06:70
TRACK 13 AUDIO
TITLE "A.Piazzolla. Five Tango Sensations: Asleep"
PERFORMER "Ksenija Sidorova"
INDEX 01 61:37:19

Доп. информация

В нескольких британских изданиях появились рецензии на вышедший недавно альбом «Ksenija Sidorova: Classical Accordion», многие критики ставят ему пять звезд из пяти. Влиятельная The Observer пишет, что вошедшие в альбом произведения Ксения играет «с легкостью, нюансированно, деликатно и с захватывающей дух виртуозностью». Издание The Daily Mail озаглавило свою рецензию «Латвийская аккордеонистка вдохнула струю свежего воздуха в незатейливый аккордеон» и советует сразу переходить к записям номер 2, 4 и 5, на которых Ксения играет Баха и Скарлатти, потому что первая запись Арне Нордхейма нуждается в более вдумчивом прослушивании». Daily Telegraph назвал игру Ксении «гламурной». http://www.kasjauns.lv/ru/novosti/57503/glamurnaja-akkordeonistka-iz-latvii-kseni...va-pokorjaet-mir



Показать сообщения:    

Текущее время: 08-Дек 12:57

Часовой пояс: UTC + 3


Вы не можете начинать темы
Вы не можете отвечать на сообщения
Вы не можете редактировать свои сообщения
Вы не можете удалять свои сообщения
Вы не можете голосовать в опросах
Вы не можете прикреплять файлы к сообщениям
Вы не можете скачивать файлы