(Opera) Lehar - Tatjana (Schubert, Schellenberger, Bluth, Lippert - Rundfunk Sinfonieorchester Berlin, Jurowski/Михаил Юровский) - 2002, APE (image+.cue) lossless


 

[Цитировать]

Franz Lehár - Tatjana
Жанр: Opera
Страна-производитель диска: Germany
Год издания диска: 2002
Издатель (лейбл): CPO
Номер по каталогу: 999 762-2
Дата записи: 2001
Аудиокодек: APE
Тип рипа: image+.cue
Битрейт аудио: lossless
Продолжительность: 68'24+53'56
Источник: собственный рип
Наличие сканов в содержимом раздачи: да
Треклист:

CD1

1. Act 1. Prelude
2. Act 1. Scene 1. Heda! Zurück von dort!
3. Act 1. Scene 2. Was suchst du hier?
4. Act 1. Scene 3. Macht keinen solchen Lärm
5. Act 1. Scene 4. Halloh! Nikuska, Höher hinauf!
6. Act 1. Scene 5. Den traf ich gut!
7. Act 1. Scene 6. Ein Windstoss war's
8. Act 2. Prelude
9. Act 2. Scene 1. Springe mein Ross, spring zu!
10. Act 2. Scene 2. Da seht nur, welchen Schatz ich bring
11. Act 2. Scene 3. (beginning) Es ist Alexis!

CD2

1. Act 2. Scene 3 (cont.) & Scene 4. Genug! Jetzt geht an eure Arbeit
2. Act 3. Prelude
3. Act 3. Scene 1. Seid Alle willkommen uns!
4. Act 3. Scene 2. Die Ärmsten! welch weiten Weg sind sie gegangen
5. Act 3. Scene 3. Hier ist mein Haus, hier kannst du bleiben
6. Act 3. Scene 4. Zufall gab mein Leben in seine Hand
7. Act 3. Interludium
8. Act 3. Scene 5. Ich komm' nicht weiter
Исполнители:
Franz Lehár - Tatjana
opera in 3 acts (revised version of "Kukuska")
Sergei - Roland Schubert, bass
Tatjana - Dagmar Schellenberger, soprano
Alexis - Herbert Lippert, tenor
Sasha - Karsten Mewes, baritone
Djerid & Nikolajev - Carsten Sabrowski, bass baritone
Pimen - Sebastian Bluth, baritone
Punin - Olaf Lemme, baritone
Raisa - Hanne Fischer, mezzo soprano
Starost von Ushlon - Dieter Scholz, bass
Rundfunkchor Berlin
Rundfunk Sinfonieorchester Berlin
Michail Jurowski

Лог создания рипа

CD1

Exact Audio Copy V1.0 beta 3 from 29. August 2011
EAC extraction logfile from 9. October 2014, 19:04
Lehár / Tatjana, Jurowski CD1
Used drive : TSSTcorpCDDVDW SE-208AB Adapter: 1 ID: 0
Read mode : Secure
Utilize accurate stream : Yes
Defeat audio cache : Yes
Make use of C2 pointers : No
Read offset correction : 6
Overread into Lead-In and Lead-Out : No
Fill up missing offset samples with silence : Yes
Delete leading and trailing silent blocks : No
Null samples used in CRC calculations : Yes
Used interface : Native Win32 interface for Win NT & 2000
Used output format : Monkey's Audio Lossless Encoder
Selected bitrate : High Lossless Compression
Quality : High
Add ID3 tag : Yes
Command line compressor : C:\Program Files (x86)\Exact Audio Copy\MAC\MAC.exe
TOC of the extracted CD
Track | Start | Length | Start sector | End sector
---------------------------------------------------------
1 | 0:00.00 | 6:47.02 | 0 | 30526
2 | 6:47.02 | 10:08.30 | 30527 | 76156
3 | 16:55.32 | 3:38.70 | 76157 | 92576
4 | 20:34.27 | 3:17.28 | 92577 | 107379
5 | 23:51.55 | 9:35.20 | 107380 | 150524
6 | 33:27.00 | 7:51.02 | 150525 | 185851
7 | 41:18.02 | 6:41.73 | 185852 | 215999
8 | 48:00.00 | 4:33.52 | 216000 | 236526
9 | 52:33.52 | 3:37.30 | 236527 | 252831
10 | 56:11.07 | 5:08.05 | 252832 | 275936
11 | 61:19.12 | 7:05.43 | 275937 | 307854
Range status and errors
Selected range
Filename D:\EAC\Lehár - Tatjana, Jurowski CD1.wav
Peak level 97.5 %
Extraction speed 5.1 X
Range quality 100.0 %
Test CRC 999652C5
Copy CRC 999652C5
Copy OK
No errors occurred
AccurateRip summary
Track 1 cannot be verified as accurate (confidence 3) [48D6CDDB], AccurateRip returned [C3BF8253] (AR v2)
Track 2 cannot be verified as accurate (confidence 3) [A2AF7257], AccurateRip returned [35FA0B37] (AR v2)
Track 3 cannot be verified as accurate (confidence 3) [9D8DE7BD], AccurateRip returned [8BA78D68] (AR v2)
Track 4 cannot be verified as accurate (confidence 3) [AA825998], AccurateRip returned [8B01E20B] (AR v2)
Track 5 cannot be verified as accurate (confidence 3) [3844F5DF], AccurateRip returned [E2C77568] (AR v2)
Track 6 cannot be verified as accurate (confidence 3) [8A41BC98], AccurateRip returned [5A7D2851] (AR v2)
Track 7 cannot be verified as accurate (confidence 3) [E083401F], AccurateRip returned [B188A9FA] (AR v2)
Track 8 cannot be verified as accurate (confidence 3) [FCDC1140], AccurateRip returned [982EE6B5] (AR v2)
Track 9 cannot be verified as accurate (confidence 3) [5DAE57A5], AccurateRip returned [A4930945] (AR v2)
Track 10 cannot be verified as accurate (confidence 3) [8F5B6FA9], AccurateRip returned [C0928FDD] (AR v2)
Track 11 cannot be verified as accurate (confidence 3) [70042E17], AccurateRip returned [C5FC1824] (AR v2)
No tracks could be verified as accurate
You may have a different pressing from the one(s) in the database
End of status report
---- CUETools DB Plugin V2.1.3
[CTDB TOCID: kmgCvlw.BWZ2oDBA_WeWZPG4KU0-] found, Submit result: kmgCvlw.BWZ2oDBA_WeWZPG4KU0- has been confirmed
[8c38f1d0] (2/2) Accurately ripped
==== Log checksum 98613DA9976D4FFD55C73D8DF9BA9A2B62FE56E7482F516D0702A7CA7DAC85C6 ====

CD2

Exact Audio Copy V1.0 beta 3 from 29. August 2011
EAC extraction logfile from 9. October 2014, 19:24
Lehár / Tatjana, Jurowski CD2
Used drive : TS8XDVDSTRANSCEND Adapter: 1 ID: 1
Read mode : Secure
Utilize accurate stream : Yes
Defeat audio cache : Yes
Make use of C2 pointers : No
Read offset correction : 6
Overread into Lead-In and Lead-Out : No
Fill up missing offset samples with silence : Yes
Delete leading and trailing silent blocks : No
Null samples used in CRC calculations : Yes
Used interface : Native Win32 interface for Win NT & 2000
Used output format : Monkey's Audio Lossless Encoder
Selected bitrate : High Lossless Compression
Quality : High
Add ID3 tag : Yes
Command line compressor : C:\Program Files (x86)\Exact Audio Copy\MAC\MAC.exe
TOC of the extracted CD
Track | Start | Length | Start sector | End sector
---------------------------------------------------------
1 | 0:00.00 | 10:10.55 | 0 | 45804
2 | 10:10.55 | 3:30.32 | 45805 | 61586
3 | 13:41.12 | 6:08.02 | 61587 | 89188
4 | 19:49.14 | 6:42.04 | 89189 | 119342
5 | 26:31.18 | 9:58.74 | 119343 | 164266
6 | 36:30.17 | 3:25.16 | 164267 | 179657
7 | 39:55.33 | 3:33.74 | 179658 | 195706
8 | 43:29.32 | 10:27.45 | 195707 | 242776
Range status and errors
Selected range
Filename D:\EAC\Lehár - Tatjana, Jurowski CD2.wav
Peak level 98.8 %
Extraction speed 1.8 X
Range quality 99.9 %
Test CRC AAA47036
Copy CRC AAA47036
Copy OK
No errors occurred
AccurateRip summary
Track 1 accurately ripped (confidence 4) [54191F89] (AR v2)
Track 2 accurately ripped (confidence 4) [B900B28C] (AR v2)
Track 3 accurately ripped (confidence 4) [4E6A3A22] (AR v2)
Track 4 accurately ripped (confidence 4) [57FBB4C2] (AR v2)
Track 5 accurately ripped (confidence 4) [FB7B7C09] (AR v2)
Track 6 accurately ripped (confidence 4) [D998C563] (AR v2)
Track 7 accurately ripped (confidence 4) [3E95F1C7] (AR v2)
Track 8 accurately ripped (confidence 4) [7400ED10] (AR v2)
All tracks accurately ripped
End of status report
---- CUETools DB Plugin V2.1.3
[CTDB TOCID: 3TUeulMNuUHr.zPFWyvcx8lLjzc-] found, Submit result: unrecognized or virtual drive
[1264e7be] (2/2) Accurately ripped
==== Log checksum 2CEAA6044FBE4BC4E257C78B2FEF4851CAB18DE2F091EA064628C1E8AA829479 ====

Содержание индексной карты (.CUE)

CD1

REM GENRE Opera
REM DATE 2001
REM DISCID 8C10080B
REM COMMENT "ExactAudioCopy v1.0b3"
PERFORMER "Lehár"
TITLE "Tatjana, Jurowski CD1"
FILE "Lehár - Tatjana, Jurowski CD1.ape" WAVE
TRACK 01 AUDIO
TITLE "Akt 1 - Vorspiel"
PERFORMER "Lehár"
INDEX 01 00:00:00
TRACK 02 AUDIO
TITLE "Akt 1 - Szene 1 - Heda! Zürück von dort!"
PERFORMER "Lehár"
INDEX 01 06:47:02
TRACK 03 AUDIO
TITLE "Akt 1 - Szene 2 - Was suchst du hier?"
PERFORMER "Lehár"
INDEX 01 16:55:32
TRACK 04 AUDIO
TITLE "Akt 1 - Szene 3 - Macht keinen solchen Lärm"
PERFORMER "Lehár"
INDEX 01 20:34:27
TRACK 05 AUDIO
TITLE "Akt 1 - Szene 4 - Halloh! Nikuska, höher hinauf!"
PERFORMER "Lehár"
INDEX 01 23:51:55
TRACK 06 AUDIO
TITLE "Akt 1 - Szene 5 - Den traf ich gut!"
PERFORMER "Lehár"
INDEX 01 33:27:00
TRACK 07 AUDIO
TITLE "Akt 1 - Szene 6 - Der Windstoss war's"
PERFORMER "Lehár"
INDEX 01 41:18:02
TRACK 08 AUDIO
TITLE "Akt 2 - Vorspiel"
PERFORMER "Lehár"
INDEX 00 47:46:55
INDEX 01 48:00:00
TRACK 09 AUDIO
TITLE "Akt 2 - Szene 1 - Springe mein Ross, spring zu!"
PERFORMER "Lehár"
INDEX 01 52:33:52
TRACK 10 AUDIO
TITLE "Akt 2 - Szene 2 - Da seht nur, welchen Schatz ich bring"
PERFORMER "Lehár"
INDEX 01 56:11:07
TRACK 11 AUDIO
TITLE "Akt 2 - Szene 3 - Es ist Alexis!"
PERFORMER "Lehár"
INDEX 01 61:19:12

CD2

REM GENRE Opera
REM DATE 2001
REM DISCID 630CA508
REM COMMENT "ExactAudioCopy v1.0b3"
PERFORMER "Lehár"
TITLE "Tatjana, Jurowski CD2"
FILE "Lehár - Tatjana, Jurowski CD2.ape" WAVE
TRACK 01 AUDIO
TITLE "Akt 2 - Szene 3+4 - Genug! Jetzt geht an eure Arbeit"
PERFORMER "Lehár"
INDEX 01 00:00:00
TRACK 02 AUDIO
TITLE "Akt 3 - Vorspiel"
PERFORMER "Lehár"
INDEX 00 10:01:56
INDEX 01 10:10:55
TRACK 03 AUDIO
TITLE "Akt 3 - Szene 1 - Seid alle willkommen uns!"
PERFORMER "Lehár"
INDEX 01 13:41:12
TRACK 04 AUDIO
TITLE "Akt 3 - Szene 2 - Die Ärmsten! Welch weiten Weg sind sie gegangen"
PERFORMER "Lehár"
INDEX 01 19:49:14
TRACK 05 AUDIO
TITLE "Akt 3 - Szene 3 - Hier ist mein Haus, hier kannst du bleiben"
PERFORMER "Lehár"
INDEX 01 26:31:18
TRACK 06 AUDIO
TITLE "Akt 3 - Szene 4 - Zufall gab mein Leben in seine Hand"
PERFORMER "Lehár"
INDEX 01 36:30:17
TRACK 07 AUDIO
TITLE "Akt 3 - Interludium"
PERFORMER "Lehár"
INDEX 01 39:55:33
TRACK 08 AUDIO
TITLE "Akt 3 - Szene 5 - Ich komm' nicht weiter"
PERFORMER "Lehár"
INDEX 01 43:29:32



Показать сообщения:    

Текущее время: 10-Дек 13:48

Часовой пояс: UTC + 3


Вы не можете начинать темы
Вы не можете отвечать на сообщения
Вы не можете редактировать свои сообщения
Вы не можете удалять свои сообщения
Вы не можете голосовать в опросах
Вы не можете прикреплять файлы к сообщениям
Вы не можете скачивать файлы