(Classical) Добжиньский – Камерная музыка с фортепиано: диск II / Dobrzynski – Chamber Works with piano II (Les Explorateurs: Lawrynowicz, Orlik, Tudzierz, Sokolowska-O'Donovan) - 2013, FLAC (image+.cue) lossless


 

[Цитировать]

Добжиньский – Камерная музыка с фортепиано: диск II / Dobrzyński – Chamber Works with piano II (Les Explorateurs: Ławrynowicz, Orlik, Tudzierz, Sokołowska-O'Donovan)
Жанр: Classical
Страна-производитель диска: Польша
Год издания диска: 2013
Издатель (лейбл): Acte Préalable
Номер по каталогу: AP0279
Дата записи: Варшава:
13 — 14 октября 2012 г. (3, 4);
23 — 24 февраля 2013 г. (1, 2);
27 — 28 апреля 2013 г. (5, 6).
Аудиокодек: FLAC
Тип рипа: image+.cue
Битрейт аудио: lossless
Продолжительность: 01:19:59
Источник: odeonmusic
Наличие сканов в содержимом раздачи: да
Треклист:
Игнаций Феликс Добжиньский (1807 — 1867).
Сочинения для камерного ансамбля с фортепиано.
Cd 2.
Фантазия A-dur (d-moll) для скрипки с оркестром, op. 32 (ок. 1829), оригинальная редакция с фортепиано.
01. [Вступление.] — Adagio molto espressivo. — [Тема.] Andante amoroso. — Вариации I — IV. — [Кода.] Presto [17:19].
Интродукция и вариации D-dur на собственную тему для скрипки с фортепиано, op. 9 (ок. 1829).
02. Вступление. Andante maestoso. — Тема. Andante con moto. — Вариации I — IV. — Вариация V. Minore. — Finale [20:12].
«Слезы» (Les larmes) e-moll для виолончели с фортепиано, op. 41 (1843), оригинальная версия для скрипки с фортепиано.
03. Andantino doloroso e molto espressivo [06:57].
«Воспоминание о Дрездене» G-dur для гобоя, виолончели и фортепиано, op. 47 (1846), оригинальная версия для фортепианного трио.
04. Andantino espressivo. — Allegretto risoluto. — [Tempo I.] – [Кода] [08:20].
Интродукция и несложные вариации F-dur на тему известного мазура [«Trzeci maj» — «Третье мая»] для флейты с фортепиано, op. 18 (1831).
05. Вступление. — Тема. — Вариации I — V. — Finale [15:14].
Анданте и рондо-полонез (Rondo alla polacca) G-dur для флейты с оркестром, op. 42 (ок. 1843), оригинальная редакция с фортепиано.
06. Andante non troppo. — [Полонез] [11:55].
Исполнители:
Les Explorateurs:
Joanna Ławrynowicz (фортепиано),
Anna Orlik (скрипка),
Łukasz Tudzierz (виолончель);
Jagoda Sokołowska-O'Donovan (флейта).

Лог создания рипа

Exact Audio Copy V1.0 beta 3 from 29. August 2011
EAC extraction logfile from 11. March 2014, 9:54
Les Explorateurs / Ignacy Feliks Dobrzynski - Chamber Works with Piano (Vol.2) - Les Explorateurs
Used drive : TSSTcorpCDDVDW SH-222BB Adapter: 2 ID: 1
Read mode : Secure
Utilize accurate stream : Yes
Defeat audio cache : Yes
Make use of C2 pointers : No
Read offset correction : 6
Overread into Lead-In and Lead-Out : No
Fill up missing offset samples with silence : Yes
Delete leading and trailing silent blocks : No
Null samples used in CRC calculations : Yes
Used interface : Native Win32 interface for Win NT & 2000
Used output format : User Defined Encoder
Selected bitrate : 896 kBit/s
Quality : High
Add ID3 tag : No
Command line compressor : C:\Program Files\Exact Audio Copy\FLAC\FLAC.EXE
Additional command line options : -8 -V -T "TITLE=%title%" -T "ARTIST=%artist%" -T "ALBUMARTIST=%albumartist%" -T "ALBUM=%albumtitle%" -T "DATE=%year%" -T "TRACKNUMBER=%tracknr%" -T "TRACKTOTAL=%numtracks%" -T "GENRE=%genre%" -T "COMMENT=%comment%" -T "PERFORMER=%albuminterpret%" -T "COMPOSER=%composer%" %source% -o %dest%
TOC of the extracted CD
Track | Start | Length | Start sector | End sector
---------------------------------------------------------
1 | 0:00.00 | 17:19.24 | 0 | 77948
2 | 17:19.24 | 20:12.74 | 77949 | 168922
3 | 37:32.23 | 6:57.35 | 168923 | 200232
4 | 44:29.58 | 8:20.20 | 200233 | 237752
5 | 52:50.03 | 15:14.54 | 237753 | 306356
6 | 68:04.57 | 11:55.13 | 306357 | 359994
Range status and errors
Selected range
Filename G:\Ripped general\[8128] Ignacy Feliks Dobrzynski – Chamber Works with Piano (Vol.2) – Les Explorateurs\Ignacy Feliks Dobrzynski - Chamber Works with Piano (Vol.2) - Les Explorateurs.wav
Peak level 97.1 %
Extraction speed 7.6 X
Range quality 100.0 %
Test CRC 3FC2BFEF
Copy CRC 3FC2BFEF
Copy OK
No errors occurred
AccurateRip summary
Track 1 not present in database
Track 2 not present in database
Track 3 not present in database
Track 4 not present in database
Track 5 not present in database
Track 6 not present in database
None of the tracks are present in the AccurateRip database
End of status report
==== Log checksum 198C8DE68AF4BF06DA77E2E8D88ECE359A2258CE41103A6F52DE61054FC902DE ====

Содержание индексной карты (.CUE)

REM GENRE Classical
REM DISCID 4412BF06
REM COMMENT "ExactAudioCopy v1.0b3"
CATALOG 5901741652792
PERFORMER "Les Explorateurs"
TITLE "Dobrzynski – Chamber Works with Piano – Cd 2"
FILE "Dobrzynski – Chamber Works with Piano – Cd 2.flac" WAVE
TRACK 01 AUDIO
TITLE "Fantaisie for violin and piano, Op. 32"
PERFORMER "Les Explorateurs"
ISRC GBRH61327901
INDEX 01 00:00:00
TRACK 02 AUDIO
TITLE "Introduction and Variations for violin and piano, Op. 9"
PERFORMER "Les Explorateurs"
ISRC GBRH61327902
INDEX 00 17:14:24
INDEX 01 17:19:24
TRACK 03 AUDIO
TITLE "Les Larmes, for violin and piano, Op. 41"
PERFORMER "Les Explorateurs"
ISRC GBRH61327903
INDEX 00 37:27:23
INDEX 01 37:32:23
TRACK 04 AUDIO
TITLE "Souvenir de Dresde, for violin, cello and piano, Op. 47"
PERFORMER "Les Explorateurs"
ISRC GBRH61327904
INDEX 00 44:24:58
INDEX 01 44:29:58
TRACK 05 AUDIO
TITLE "Introduction and Variations for flute and piano, Op. 18"
PERFORMER "Les Explorateurs"
ISRC GBRH61327905
INDEX 00 52:45:03
INDEX 01 52:50:03
TRACK 06 AUDIO
TITLE "Andante e Rondo alla Polacca for flute and piano, Op. 42"
PERFORMER "Les Explorateurs"
ISRC GBRH61327906
INDEX 00 67:59:57
INDEX 01 68:04:57

Вариант индексной карты (.CUE) с исправленными зазорами

REM GENRE Classical
REM DISCID 4412BF06
REM COMMENT "ExactAudioCopy v1.0b3"
CATALOG 5901741652792
PERFORMER "Les Explorateurs"
TITLE "Dobrzynski – Chamber Works with Piano – Cd 2"
FILE "Dobrzynski – Chamber Works with Piano – Cd 2.flac" WAVE
TRACK 01 AUDIO
TITLE "Fantaisie for violin and piano, Op. 32"
PERFORMER "Les Explorateurs"
ISRC GBRH61327901
INDEX 01 00:00:00
TRACK 02 AUDIO
TITLE "Introduction and Variations for violin and piano, Op. 9"
PERFORMER "Les Explorateurs"
ISRC GBRH61327902
INDEX 00 17:11:10
INDEX 01 17:20:08
TRACK 03 AUDIO
TITLE "Les Larmes, for violin and piano, Op. 41"
PERFORMER "Les Explorateurs"
ISRC GBRH61327903
INDEX 00 37:23:34
INDEX 01 37:33:17
TRACK 04 AUDIO
TITLE "Souvenir de Dresde, for violin, cello and piano, Op. 47"
PERFORMER "Les Explorateurs"
ISRC GBRH61327904
INDEX 00 44:21:17
INDEX 01 44:29:58
TRACK 05 AUDIO
TITLE "Introduction and Variations for flute and piano, Op. 18"
PERFORMER "Les Explorateurs"
ISRC GBRH61327905
INDEX 00 52:43:26
INDEX 01 52:50:03
TRACK 06 AUDIO
TITLE "Andante e Rondo alla Polacca for flute and piano, Op. 42"
PERFORMER "Les Explorateurs"
ISRC GBRH61327906
INDEX 00 67:58:16
INDEX 01 68:04:57
INDEX 02 79:57:52

Вариант индексной карты (.CUE) с исправленными зазорами и разделением вариаций и Фантазии на отдельные треки

REM GENRE Classical
REM DISCID 4412BF06
REM COMMENT "ExactAudioCopy v1.0b3"
CATALOG 5901741652792
PERFORMER "Les Explorateurs"
TITLE "Dobrzynski – Chamber Works with Piano – Cd 2"
FILE "Dobrzynski – Chamber Works with Piano – Cd 2.flac" WAVE
TRACK 01 AUDIO
TITLE "Fantaisie for violin and piano, Op. 32 - Introduction -"
PERFORMER "Les Explorateurs"
ISRC GBRH61327901
INDEX 01 00:00:00
TRACK 02 AUDIO
TITLE "Fantaisie for violin and piano, Op. 32 - Adagio molto espressivo -"
PERFORMER "Les Explorateurs"
ISRC GBRH61327902
INDEX 01 04:14:11
TRACK 03 AUDIO
TITLE "Fantaisie for violin and piano, Op. 32 - Andante amoroso -"
PERFORMER "Les Explorateurs"
ISRC GBRH61327903
INDEX 01 06:51:52
TRACK 04 AUDIO
TITLE "Fantaisie for violin and piano, Op. 32 - Variation I -"
PERFORMER "Les Explorateurs"
ISRC GBRH61327904
INDEX 01 07:38:53
TRACK 05 AUDIO
TITLE "Fantaisie for violin and piano, Op. 32 - Variation II -"
PERFORMER "Les Explorateurs"
ISRC GBRH61327905
INDEX 01 09:25:26
TRACK 06 AUDIO
TITLE "Fantaisie for violin and piano, Op. 32 - Variation III -"
PERFORMER "Les Explorateurs"
ISRC GBRH61327906
INDEX 01 11:43:23
TRACK 07 AUDIO
TITLE "Fantaisie for violin and piano, Op. 32 - Variation IV -"
PERFORMER "Les Explorateurs"
ISRC GBRH61327906
INDEX 01 13:46:26
TRACK 08 AUDIO
TITLE "Fantaisie for violin and piano, Op. 32 - Coda"
PERFORMER "Les Explorateurs"
ISRC GBRH61327906
INDEX 01 15:57:67
TRACK 09 AUDIO
TITLE "Introduction and Variations for violin and piano, Op. 9 - Introduction -"
PERFORMER "Les Explorateurs"
ISRC GBRH61327902
INDEX 00 17:11:10
INDEX 01 17:20:08
TRACK 10 AUDIO
TITLE "Introduction and Variations for violin and piano, Op. 9 - Theme -"
PERFORMER "Les Explorateurs"
ISRC GBRH61327903
INDEX 01 19:07:44
TRACK 11 AUDIO
TITLE "Introduction and Variations for violin and piano, Op. 9 - Variation I -"
PERFORMER "Les Explorateurs"
ISRC GBRH61327904
INDEX 01 20:54:05
TRACK 12 AUDIO
TITLE "Introduction and Variations for violin and piano, Op. 9 - Variation II -"
PERFORMER "Les Explorateurs"
ISRC GBRH61327905
INDEX 01 23:01:24
TRACK 13 AUDIO
TITLE "Introduction and Variations for violin and piano, Op. 9 - Variation III -"
PERFORMER "Les Explorateurs"
ISRC GBRH61327906
INDEX 01 25:02:23
TRACK 14 AUDIO
TITLE "Introduction and Variations for violin and piano, Op. 9 - Variation IV -"
PERFORMER "Les Explorateurs"
ISRC GBRH61327906
INDEX 01 27:29:73
TRACK 15 AUDIO
TITLE "Introduction and Variations for violin and piano, Op. 9 - Variation V -"
PERFORMER "Les Explorateurs"
ISRC GBRH61327906
INDEX 01 29:24:48
TRACK 16 AUDIO
TITLE "Introduction and Variations for violin and piano, Op. 9 - Finale"
PERFORMER "Les Explorateurs"
ISRC GBRH61327906
INDEX 01 32:28:11
TRACK 17 AUDIO
TITLE "Les Larmes, for violin and piano, Op. 41"
PERFORMER "Les Explorateurs"
ISRC GBRH61327903
INDEX 00 37:23:34
INDEX 01 37:33:17
TRACK 18 AUDIO
TITLE "Souvenir de Dresde, for violin, cello and piano, Op. 47"
PERFORMER "Les Explorateurs"
ISRC GBRH61327904
INDEX 00 44:21:17
INDEX 01 44:29:58
TRACK 19 AUDIO
TITLE "Introduction and Variations for flute and piano, Op. 18 - Introduction -"
PERFORMER "Les Explorateurs"
ISRC GBRH61327905
INDEX 00 52:43:26
INDEX 01 52:50:03
TRACK 20 AUDIO
TITLE "Introduction and Variations for flute and piano, Op. 18 - Theme -"
PERFORMER "Les Explorateurs"
ISRC GBRH61327906
INDEX 01 55:01:31
TRACK 21 AUDIO
TITLE "Introduction and Variations for flute and piano, Op. 18 - Variation I -"
PERFORMER "Les Explorateurs"
ISRC GBRH61327906
INDEX 01 55:32:66
TRACK 22 AUDIO
TITLE "Introduction and Variations for flute and piano, Op. 18 - Variation II -"
PERFORMER "Les Explorateurs"
ISRC GBRH61327906
INDEX 01 56:28:52
TRACK 23 AUDIO
TITLE "Introduction and Variations for flute and piano, Op. 18 - Variation III -"
PERFORMER "Les Explorateurs"
ISRC GBRH61327906
INDEX 01 57:35:70
TRACK 24 AUDIO
TITLE "Introduction and Variations for flute and piano, Op. 18 - Variation IV -"
PERFORMER "Les Explorateurs"
ISRC GBRH61327906
INDEX 01 58:29:18
TRACK 25 AUDIO
TITLE "Introduction and Variations for flute and piano, Op. 18 - Variation V -"
PERFORMER "Les Explorateurs"
ISRC GBRH61327906
INDEX 01 59:26:65
TRACK 26 AUDIO
TITLE "Introduction and Variations for flute and piano, Op. 18 - Finale"
PERFORMER "Les Explorateurs"
ISRC GBRH61327906
INDEX 01 62:56:08
TRACK 27 AUDIO
TITLE "Andante e Rondo alla Polacca for flute and piano, Op. 42"
PERFORMER "Les Explorateurs"
ISRC GBRH61327906
INDEX 00 67:58:16
INDEX 01 68:04:57
INDEX 02 79:57:52
-Этот диск является частью единого двухдискового собрания камерной музыки Добжиньского с фортепиано.
Первый диск можно скачать здесь.-Недостающий до полноты собрания Дуэт для кларнета и фортепиано, op. 47 можно скачать здесь (он имеет тот же номер опуса, что и «Воспоминание о Дрездене»; судя по каталогу, то же касается op. 42: это и представленное в данной записи рондо для флейты, и виолончельные вариации).



Показать сообщения:    

Текущее время: 07-Дек 13:40

Часовой пояс: UTC + 3


Вы не можете начинать темы
Вы не можете отвечать на сообщения
Вы не можете редактировать свои сообщения
Вы не можете удалять свои сообщения
Вы не можете голосовать в опросах
Вы не можете прикреплять файлы к сообщениям
Вы не можете скачивать файлы