Одинокие первопроходцы: группа The Young Gods / Pionniers solitaires: The Young Gods (Кристиан Вальтер / Christian Walther) [2010, документальный, музыка, DVB] Original (Fre) + Sub (Rus)


Статистика раздачи [Обновить пиров]
Размер:  1.75 GB   |    Зарегистрирован:  8 месяцев 19 дней   |    Скачан:  0 раз

Полного источника не было: Никогда

 
   
 
 
 

[Цитировать]

Одинокие первопроходцы: группа The Young Gods
Pionniers solitaires: The Young Gods- Дата/Год выпуска: 2010
Страна: Швейцария
Жанр: документальный, музыка
Продолжительность: 00:56:36
Перевод: Субтитры
Русские субтитры: есть
Формат субтитров: hardsub (неотключаемые)
Доп. информация о субтитрах: перевод И.Рыбкиной, Éclair Group
Оригинальная аудиодорожка: французский
Режиссер: Кристиан Вальтер / Christian Walther
Телеканал: TV5MONDEОписание: Швейцарская группа The Young Gods считается самой новаторской и влиятельной в мире музыки. Когда слышишь ее впервые, она обескураживает, сбивает с толку. Группа The Young Gods считается пионерами индустриального рока. (из предисловия к фильму)
Доп. информация: DVB-S

качество: DVB
формат: MKV
Видео: MPEG Video 2, 704x576@1024x576 (16:9), 25 fps, ~4154 kbps avg, 0.410 bit/pixel
Аудио: Французский (MPEG Audio 2, 2 ch, 48 kHz, ~192.00 kbps avg)

MediaInfo

Общее
Уникальный идентификатор : 243129454812563975754634159355931265034 (0xB6E9079CF30454F3927C27C1602E080A)
Полное имя : E:\My Torrents 2\[apreder]Pionniers_solitaires_The_Young_Gods(2010)DVB.mkv
Формат : Matroska
Версия формата : Version 2
Размер файла : 1,75 Гбайт
Продолжительность : 56 м.
Режим общего битрейта : Переменный
Общий поток : 4435 Кбит/сек
Дата кодирования : UTC 2014-10-18 11:59:57
Программа кодирования : mkvmerge v7.2.0 ('On Every Street') 64bit built on Sep 13 2014 15:52:10
Библиотека кодирования : libebml v1.3.0 + libmatroska v1.4.1
Видео
Идентификатор : 1
Формат : MPEG Video
Версия формата : Version 2
Профиль формата : Main@Main
Параметр BVOP формата : Нет
Параметр матрицы формата : Выборочная
Format_Settings_PictureStructure : Frame
Идентификатор кодека : V_MPEG2
Идентификатор кодека/Информация : MPEG 1 or 2 Video
Продолжительность : 56 м.
Вид битрейта : Переменный
Битрейт : 4154 Кбит/сек
Максимальный битрейт : 8422 Кбит/сек
Ширина : 704 пикселя
Высота : 576 пикселей
Соотношение сторон : 16:9
Режим частоты кадров : Постоянный
Частота кадров : 25,000 кадров/сек
Стандарт вещания : PAL
Цветовое пространство : YUV
Субдискретизация насыщенности : 4:2:0
Битовая глубина : 8 бит
Тип развёртки : Чересстрочная
Порядок развёртки : Верхнее поле первое
Метод сжатия : С потерями
Бит/(Пиксели*Кадры) : 0.410
Временной код первого кадра : 00:00:00:00
Оригинал временного кода : Group of pictures header
Размер потока : 1,64 Гбайт (94%)
Default : Да
Forced : Нет
Аудио
Идентификатор : 2
Формат : MPEG Audio
Версия формата : Version 1
Профиль формата : Layer 2
Идентификатор кодека : A_MPEG/L2
Идентификатор кодека/Подсказка : MP2
Продолжительность : 56 м.
Вид битрейта : Постоянный
Битрейт : 192 Кбит/сек
Каналы : 2 канала
Частота : 48,0 КГц
Метод сжатия : С потерями
Размер потока : 77,7 Мбайт (4%)
Язык : French
Default : Да
Forced : Нет

Скриншоты


Резервные скриншоты


-[1'826]
[teatrix.ru].t19266.torrent 
Торрент: Зарегистрирован [ 2016-03-18 12:40 ] · A14FBAF47C67B0175717474BF88282BEC335CE7D

Скачать .torrent

Скачать

18 KB

Статус: проверено
Скачан: 0 раз
Размер: 1.75 GB
terms.php



Быстрый ответ

Имя:

      
Для отправки сообщений необходимо включить JavaScript
Показать сообщения:    

Текущее время: 06-Дек 13:09

Часовой пояс: UTC + 3


Вы можете начинать темы
Вы можете отвечать на сообщения
Вы не можете редактировать свои сообщения
Вы не можете удалять свои сообщения
Вы не можете голосовать в опросах
Вы не можете прикреплять файлы к сообщениям
Вы можете скачивать файлы