(Classical) Бжезиньский и Юзеф Шульц – Скрипичные сонаты / Brzezinski & Josef Szulc – Violin Sonatas (Irena Kalinowska-Grohs, Barbara Pakura) - 2013, FLAC (image+.cue) lossless


 

[Цитировать]

Бжезиньский и Юзеф Шульц – Скрипичные сонаты / Brzeziński & Jósef Szulc – Violin Sonatas (Irena Kalinowska-Grohs, Barbara Pakura)
Жанр: Classical
Страна-производитель диска: ЕС
Год издания диска: 2013
Издатель (лейбл): Acte Préalable
Номер по каталогу: AP0271
Дата записи: 1 февраля (1 — 3), 31 июля и 1 августа (4 — 7) 2012 г., Катовице.
Аудиокодек: FLAC
Тип рипа: image+.cue
Битрейт аудио: lossless
Продолжительность: 01:02:07
Источник: odeonmusic
Наличие сканов в содержимом раздачи: да
Треклист:
Францишек Ксаверий Бжезиньский (1867 — 1944).
Соната для скрипки и фортепиано D-dur, op. 6 (опубл. 1910).
01. I. Allegro moderato [09:49].
02. II. Largo [11:42].
03. III. Vivace [05:10].
Юзеф Зыгмунт Шульц (1875 — 1956).
Соната для фортепиано и скрипки a-moll, op. 61 (до 1904?).
04. I. Allegro ma non troppo [11:02].
05. II. Andante sostenuto [09:02].
06. III. Presto ma non troppo. — Trio. L'istesso tempo. — Vivacissimo. — Tempo I [05:33].
07. IV. Allegro assai. — [Coda.] Presto e molto agitato [09:45].
Исполнители:
Irena Kalinowska-Grohs (скрипка),
Barbara Pakura (фортепиано).

Лог создания рипа

Exact Audio Copy V1.0 beta 3 from 29. August 2011
EAC extraction logfile from 4. March 2014, 12:50
Irena Kalinowska-Grohs / Brzezinski, Szulc - Violin Sonatas - Irena Kalinowska-Grohs
Used drive : TSSTcorpCDDVDW SH-222BB Adapter: 2 ID: 1
Read mode : Secure
Utilize accurate stream : Yes
Defeat audio cache : Yes
Make use of C2 pointers : No
Read offset correction : 6
Overread into Lead-In and Lead-Out : No
Fill up missing offset samples with silence : Yes
Delete leading and trailing silent blocks : No
Null samples used in CRC calculations : Yes
Used interface : Native Win32 interface for Win NT & 2000
Used output format : User Defined Encoder
Selected bitrate : 896 kBit/s
Quality : High
Add ID3 tag : No
Command line compressor : C:\Program Files\Exact Audio Copy\FLAC\FLAC.EXE
Additional command line options : -8 -V -T "TITLE=%title%" -T "ARTIST=%artist%" -T "ALBUMARTIST=%albumartist%" -T "ALBUM=%albumtitle%" -T "DATE=%year%" -T "TRACKNUMBER=%tracknr%" -T "TRACKTOTAL=%numtracks%" -T "GENRE=%genre%" -T "COMMENT=%comment%" -T "PERFORMER=%albuminterpret%" -T "COMPOSER=%composer%" %source% -o %dest%
TOC of the extracted CD
Track | Start | Length | Start sector | End sector
---------------------------------------------------------
1 | 0:00.00 | 9:49.18 | 0 | 44192
2 | 9:49.18 | 11:42.51 | 44193 | 96893
3 | 21:31.69 | 5:10.60 | 96894 | 120203
4 | 26:42.54 | 11:02.65 | 120204 | 169918
5 | 37:45.44 | 9:02.28 | 169919 | 210596
6 | 46:47.72 | 5:33.35 | 210597 | 235606
7 | 52:21.32 | 9:45.59 | 235607 | 279540
Range status and errors
Selected range
Filename G:\Ripped general\[8130] Brzezinski, Szulc – Violin Sonatas – Irena Kalinowska-Grohs\Brzezinski, Szulc - Violin Sonatas - Irena Kalinowska-Grohs.wav
Peak level 96.1 %
Extraction speed 6.5 X
Range quality 100.0 %
Test CRC 85B8C1A2
Copy CRC 85B8C1A2
Copy OK
No errors occurred
AccurateRip summary
Track 1 not present in database
Track 2 not present in database
Track 3 not present in database
Track 4 not present in database
Track 5 not present in database
Track 6 not present in database
Track 7 not present in database
None of the tracks are present in the AccurateRip database
End of status report
==== Log checksum 20A2B03EDC62233E7F7163E4C72489F15AED53C8E91308D5647B0E851A099240 ====

Содержание индексной карты (.CUE)

REM GENRE Classical
REM DISCID 5A0E8F07
REM COMMENT "ExactAudioCopy v1.0b3"
CATALOG 5902634752711
PERFORMER "Irena Kalinowska-Grohs & Barbara Pakura"
TITLE "Brzezinski & Szulc – Violin Sonatas – Kalinowska-Grohs & Pakura"
FILE "Brzezinski & Szulc – Violin Sonatas – Kalinowska-Grohs & Pakura.flac" WAVE
TRACK 01 AUDIO
TITLE "Brzezinski - Violin Sonata in D major, Op. 6 - I. Allegro moderato"
PERFORMER "Irena Kalinowska-Grohs & Barbara Pakura"
ISRC GBRH61327101
INDEX 01 00:00:00
TRACK 02 AUDIO
TITLE "Brzezinski - Violin Sonata in D major, Op. 6 - II. Largo"
PERFORMER "Irena Kalinowska-Grohs & Barbara Pakura"
ISRC GBRH61327102
INDEX 01 09:49:18
TRACK 03 AUDIO
TITLE "Brzezinski - Violin Sonata in D major, Op. 6 - III. Vivace"
PERFORMER "Irena Kalinowska-Grohs & Barbara Pakura"
ISRC GBRH61327103
INDEX 01 21:31:69
TRACK 04 AUDIO
TITLE "Szulc - Violin Sonata in A minor, Op. 61 - I. Allegro ma non troppo"
PERFORMER "Irena Kalinowska-Grohs & Barbara Pakura"
ISRC GBRH61327104
INDEX 00 26:37:54
INDEX 01 26:42:54
TRACK 05 AUDIO
TITLE "Szulc - Violin Sonata in A minor, Op. 61 - II. Andante sostenuto"
PERFORMER "Irena Kalinowska-Grohs & Barbara Pakura"
ISRC GBRH61327105
INDEX 01 37:45:44
TRACK 06 AUDIO
TITLE "Szulc - Violin Sonata in A minor, Op. 61 - III. Presto ma non troppo"
PERFORMER "Irena Kalinowska-Grohs & Barbara Pakura"
ISRC GBRH61327106
INDEX 01 46:47:72
TRACK 07 AUDIO
TITLE "Szulc - Violin Sonata in A minor, Op. 61 - IV. Allegro assai"
PERFORMER "Irena Kalinowska-Grohs & Barbara Pakura"
ISRC GBRH61327107
INDEX 01 52:21:32

Вариант индексной карты (.CUE) с выставленными зазорами

REM GENRE Classical
REM DISCID 5A0E8F07
REM COMMENT "ExactAudioCopy v1.0b3"
CATALOG 5902634752711
PERFORMER "Irena Kalinowska-Grohs & Barbara Pakura"
TITLE "Brzezinski & Szulc – Violin Sonatas – Kalinowska-Grohs & Pakura"
FILE "Brzezinski & Szulc – Violin Sonatas – Kalinowska-Grohs & Pakura.flac" WAVE
TRACK 01 AUDIO
TITLE "Brzezinski - Violin Sonata in D major, Op. 6 - I. Allegro moderato"
PERFORMER "Irena Kalinowska-Grohs & Barbara Pakura"
ISRC GBRH61327101
INDEX 00 00:00:00
INDEX 01 00:00:18
TRACK 02 AUDIO
TITLE "Brzezinski - Violin Sonata in D major, Op. 6 - II. Largo"
PERFORMER "Irena Kalinowska-Grohs & Barbara Pakura"
ISRC GBRH61327102
INDEX 00 09:48:04
INDEX 01 09:50:33
TRACK 03 AUDIO
TITLE "Brzezinski - Violin Sonata in D major, Op. 6 - III. Vivace"
PERFORMER "Irena Kalinowska-Grohs & Barbara Pakura"
ISRC GBRH61327103
INDEX 00 21:31:68
INDEX 01 21:32:62
TRACK 04 AUDIO
TITLE "Szulc - Violin Sonata in A minor, Op. 61 - I. Allegro ma non troppo"
PERFORMER "Irena Kalinowska-Grohs & Barbara Pakura"
ISRC GBRH61327104
INDEX 00 26:36:34
INDEX 01 26:42:54
TRACK 05 AUDIO
TITLE "Szulc - Violin Sonata in A minor, Op. 61 - II. Andante sostenuto"
PERFORMER "Irena Kalinowska-Grohs & Barbara Pakura"
ISRC GBRH61327105
INDEX 00 37:43:06
INDEX 01 37:46:10
TRACK 06 AUDIO
TITLE "Szulc - Violin Sonata in A minor, Op. 61 - III. Presto ma non troppo"
PERFORMER "Irena Kalinowska-Grohs & Barbara Pakura"
ISRC GBRH61327106
INDEX 00 46:45:32
INDEX 01 46:48:58
TRACK 07 AUDIO
TITLE "Szulc - Violin Sonata in A minor, Op. 61 - IV. Allegro assai"
PERFORMER "Irena Kalinowska-Grohs & Barbara Pakura"
ISRC GBRH61327107
INDEX 00 52:19:31
INDEX 01 52:22:05
INDEX 02 62:04:26



Показать сообщения:    

Текущее время: 04-Дек 21:26

Часовой пояс: UTC + 3


Вы не можете начинать темы
Вы не можете отвечать на сообщения
Вы не можете редактировать свои сообщения
Вы не можете удалять свои сообщения
Вы не можете голосовать в опросах
Вы не можете прикреплять файлы к сообщениям
Вы не можете скачивать файлы