(Classical) [LP] [24/48] Вадим Борисовский - Из Сокровищницы Мирового Исполнительского Искусства - 1980, FLAC (image+.cue)


Статистика раздачи [Обновить пиров]
Размер:  268 MB   |    Зарегистрирован:  8 месяцев 18 дней   |    Скачан:  0 раз

Полного источника не было: Никогда

Личеров:  3  [  0 KB/s  ]   Подробная статистика пиров
 
   
 
 
 

[Цитировать]

Вадим Борисовский - Из Сокровищницы Мирового Исполнительского Искусства
Жанр: Classical
Носитель: LP
Год выпуска: 1980
Лейбл: Melodya
Страна-производитель: USSR
Аудио кодек: FLAC
Тип рипа: image+.cue
Формат записи: 32/192
Формат раздачи: 24/48
Продолжительность: 48.41 min
Треклист:
Side one:
М.Глинка - Соната для альта и фортепиано ре минор
01. Allegro moderato
02. Laghetto ma non troppo
П.Булахов-В. Борисовский
03. Баркарола для двух альтов и фортепиано
П.Чайковский-В. Борисовский
04. Страстное признание
Side two:
Ф.Шуберт-В. Борисовский
05. Экспромпт соль мажор,соч.90 № 3
Тибо IV-В. Борисовский
06. Песнь о розе
Л.Т.Миландр-Л.Вефельгем
07. Andante and Minuet
Ж.П.Мартини-Л.Вефельгем
08. Plaisir d'Amour
Вадим Борисовский, альт (1-4)
виоль д'амур (5-7)
Михаил Тэриан,альт (2)
Нина Александрийская, меццо-сопрано (5)
Александр Гольденвейзер, фортепиано (1)
Борис Жилинский, фортепиано (2-4)
Георгий Орентлихер, фортепиано (5)
Мария Неменова-Лунц, фортепиано (6-7)
Arcives recording of 1950 (1) and 1951
Источник оцифровки: автором раздачи
Код класса состояния винила: Mint
Устройство воспроизведения: Электроника ЭП 017С
Головка звукоснимателя: Audio-Technica AT95
Предварительный усилитель: Бриг-001
АЦП: VIA HD audio device
Программа-оцифровщик: Izotope RX III Advanced
Обработка: Manual

Спектр+АЧХ+Уровень записи


Back,Inner & Disc





DR=12

foobar2000 1.1.10 / Dynamic Range Meter 1.1.1
log date: 2014-10-19 12:42:37
--------------------------------------------------------------------------------
Analyzed: Vadim Borisovsky / Viola, viola d'amore
--------------------------------------------------------------------------------
DR Peak RMS Duration Track
--------------------------------------------------------------------------------
DR12 0.00 dB -16.33 dB 8:32 ?-Allegro moderato
DR13 -1.04 dB -19.39 dB 8:28 ?-Laghetto ma non troppo
DR12 -0.80 dB -18.55 dB 3:06 ?-Barcarolle for Two Violas and Piano
DR13 -1.24 dB -19.21 dB 3:36 ?-Ardent Declaration
DR11 -1.57 dB -16.81 dB 5:15 ?-Impromptu in G Majot,Op.90 № 3
DR12 -1.33 dB -18.64 dB 6:09 ?-Song Of the Rose
DR13 0.00 dB -17.91 dB 8:17 ?-Andante and Minuet
DR12 -2.59 dB -20.49 dB 5:18 ?-Plaisir d'Amour
--------------------------------------------------------------------------------
Number of tracks: 8
Official DR value: DR12
Samplerate: 48000 Hz
Channels: 1
Bits per sample: 24
Bitrate: 745 kbps
Codec: FLAC
================================================================================
[teatrix.ru].t19270.torrent 
Торрент: Зарегистрирован [ 2016-03-18 12:51 ] · 3112F3E91CEAA59518EB877E42A418ED4FF31D76

Скачать .torrent

Скачать

12 KB

Статус: проверено
Скачан: 0 раз
Размер: 268 MB
terms.php



Быстрый ответ

Имя:

      
Для отправки сообщений необходимо включить JavaScript
Показать сообщения:    

Текущее время: 05-Дек 15:29

Часовой пояс: UTC + 3


Вы можете начинать темы
Вы можете отвечать на сообщения
Вы не можете редактировать свои сообщения
Вы не можете удалять свои сообщения
Вы не можете голосовать в опросах
Вы не можете прикреплять файлы к сообщениям
Вы можете скачивать файлы