(Contemporary Classical, Kairos) Hanspeter Kyburz ‎– Malstrom, The Voynich Cipher Manuscript, Parts (Klangforum Wien, Hans Zender)- 2000, FLAC (image+.cue) lossless


 

[Цитировать]

Hanspeter Kyburz ‎– Malstrom, The Voynich Cipher Manuscript, Parts
Жанр: Contemporary Classical
Страна-производитель диска: Germany
Год издания диска: 2000
Издатель (лейбл): Kairos
Номер по каталогу: 0012152KAI
Дата записи: 1996, 1998
Аудиокодек: FLAC
Тип рипа: image+.cue
Битрейт аудио: lossless
Продолжительность: 00:59:15
Источник: скачано с
сайт-источник/ник/другое: soulseek
Наличие сканов в содержимом раздачи: нет
Треклист:
1. Malstrom Für Großes Orchester In 4 Gruppen (1998) (16:33)
The Voynich Cipher Manuscript Für Gemischten Chor Und Ensemble (1995) (20:13)
2. Untitled (3:13)
3. Untitled (3:23)
4. Untitled (3:15)
5. Untitled (3:19)
6. Untitled (3:35)
7. Untitled (3:42)
Parts (1994/95) (22:44)
8. Untitled (6:32)
9. Untitled (6:40)
10. Untitled (4:21)
11. Untitled (4:32)
Исполнители:
Malstrom Für Großes Orchester In 4 Gruppen (1998)
Conductor – Hans Zender
Engineer [Recording Engineer] – Helmut Hanusch, Norbert Vossen
Orchestra – SWR-Sinfonieorchester Baden-Baden Und Freiburg
Recording Supervisor – Helmut Hanusch
The Voynich Cipher Manuscript Für Gemischten Chor Und Ensemble (1995)
Alto Vocals – Monika Bair-Ivenz
Bass Vocals – Ernst-Wolfgang Lauer
Choir – Südfunk-Chor Stuttgart
Conductor – Rupert Huber (2)
Engineer [Recording Engineer] – Burkhard Pitzer-Landeck*
Orchestra – Klangforum Wien
Recording Supervisor – Michael Sandner
Soprano Vocals – Anna Maria Pammer
Tenor Vocals – Wolfgang Isenhardt
Parts (1994/95)
Conductor – Peter Rundel
Engineer [Recording Engineer] – Michael Renner
Orchestra – Klangforum Wien
Recording Supervisor – Peter Böhm

Лог создания рипа

X Lossless Decoder version 20100704 (120.4)
XLD extraction logfile from 2010-07-07 16:48:33 +0200
Hanspeter Kyburz / Malstrom/The Voynich Cipher Manuscript/Parts
Used drive : MATSHITA DVD-R UJ-85J (revision FBZ8)
Use cdparanoia mode : YES (CDParanoia III 10.2 engine)
Disable audio cache : OK for the drive with cache less than 2750KB
Make use of C2 pointers : NO
Read offset correction : 102
Max retry count : 100
Gap status : Analyzed, Appended
TOC of the extracted CD
Track | Start | Length | Start sector | End sector
---------------------------------------------------------
1 | 00:00:00 | 16:43:28 | 0 | 75252
2 | 16:43:28 | 03:13:23 | 75253 | 89750
3 | 19:56:51 | 03:23:36 | 89751 | 105011
4 | 23:20:12 | 03:14:72 | 105012 | 119633
5 | 26:35:09 | 03:18:52 | 119634 | 134535
6 | 29:53:61 | 03:35:35 | 134536 | 150695
7 | 33:29:21 | 03:42:07 | 150696 | 167352
8 | 37:11:28 | 06:31:56 | 167353 | 196733
9 | 43:43:09 | 06:39:56 | 196734 | 226714
10 | 50:22:65 | 04:20:43 | 226715 | 246257
11 | 54:43:33 | 04:31:54 | 246258 | 266636
All Tracks
Filename : /Malstrom_TheVoynichCipherManuscript_Parts.flac
CRC32 hash : 4AE02C1D
CRC32 hash (skip zero) : 75BE5691
Statistics
Read error : 0
Skipped (treated as error) : 0
Edge jitter error (maybe fixed) : 0
Atom jitter error (maybe fixed) : 0
Drift error (maybe fixed) : 0
Dropped bytes error (maybe fixed) : 0
Duplicated bytes error (maybe fixed) : 0
Track 01
Pre-gap length : 00:02:00
CRC32 hash : A3900943
CRC32 hash (skip zero) : 2B245389
AccurateRip signature : 3051AB74
->Accurately ripped! (confidence 2)
Statistics
Read error : 0
Skipped (treated as error) : 0
Edge jitter error (maybe fixed) : 0
Atom jitter error (maybe fixed) : 0
Drift error (maybe fixed) : 0
Dropped bytes error (maybe fixed) : 0
Duplicated bytes error (maybe fixed) : 0
Track 02
Pre-gap length : 00:09:45
CRC32 hash : A2C25C39
CRC32 hash (skip zero) : 1A76B61D
AccurateRip signature : 25860B5F
->Accurately ripped! (confidence 2)
Statistics
Read error : 0
Skipped (treated as error) : 0
Edge jitter error (maybe fixed) : 0
Atom jitter error (maybe fixed) : 0
Drift error (maybe fixed) : 0
Dropped bytes error (maybe fixed) : 0
Duplicated bytes error (maybe fixed) : 0
Track 03
CRC32 hash : BB7D22D1
CRC32 hash (skip zero) : 56047995
AccurateRip signature : EF245F42
->Accurately ripped! (confidence 2)
Statistics
Read error : 0
Skipped (treated as error) : 0
Edge jitter error (maybe fixed) : 0
Atom jitter error (maybe fixed) : 0
Drift error (maybe fixed) : 0
Dropped bytes error (maybe fixed) : 0
Duplicated bytes error (maybe fixed) : 0
Track 04
CRC32 hash : E7FE5827
CRC32 hash (skip zero) : C190F6CB
AccurateRip signature : 6847F24C
->Accurately ripped! (confidence 2)
Statistics
Read error : 0
Skipped (treated as error) : 0
Edge jitter error (maybe fixed) : 0
Atom jitter error (maybe fixed) : 0
Drift error (maybe fixed) : 0
Dropped bytes error (maybe fixed) : 0
Duplicated bytes error (maybe fixed) : 0
Track 05
CRC32 hash : 448C1CC8
CRC32 hash (skip zero) : 58353863
AccurateRip signature : 697E7622
->Accurately ripped! (confidence 2)
Statistics
Read error : 0
Skipped (treated as error) : 0
Edge jitter error (maybe fixed) : 0
Atom jitter error (maybe fixed) : 0
Drift error (maybe fixed) : 0
Dropped bytes error (maybe fixed) : 0
Duplicated bytes error (maybe fixed) : 0
Track 06
CRC32 hash : 38F4BB8A
CRC32 hash (skip zero) : 1B2B3824
AccurateRip signature : 44299F6B
->Accurately ripped! (confidence 2)
Statistics
Read error : 0
Skipped (treated as error) : 0
Edge jitter error (maybe fixed) : 0
Atom jitter error (maybe fixed) : 0
Drift error (maybe fixed) : 0
Dropped bytes error (maybe fixed) : 0
Duplicated bytes error (maybe fixed) : 0
Track 07
CRC32 hash : F378BAD7
CRC32 hash (skip zero) : 0F7A5B6B
AccurateRip signature : 2791DB81
->Accurately ripped! (confidence 2)
Statistics
Read error : 0
Skipped (treated as error) : 0
Edge jitter error (maybe fixed) : 0
Atom jitter error (maybe fixed) : 0
Drift error (maybe fixed) : 0
Dropped bytes error (maybe fixed) : 0
Duplicated bytes error (maybe fixed) : 0
Track 08
Pre-gap length : 00:09:44
CRC32 hash : 135183AA
CRC32 hash (skip zero) : 51898649
AccurateRip signature : 56D477D8
->Accurately ripped! (confidence 2)
Statistics
Read error : 0
Skipped (treated as error) : 0
Edge jitter error (maybe fixed) : 0
Atom jitter error (maybe fixed) : 0
Drift error (maybe fixed) : 0
Dropped bytes error (maybe fixed) : 0
Duplicated bytes error (maybe fixed) : 0
Track 09
Pre-gap length : 00:03:45
CRC32 hash : 9C6A2AC9
CRC32 hash (skip zero) : C4621F08
AccurateRip signature : 82F5164D
->Accurately ripped! (confidence 2)
Statistics
Read error : 0
Skipped (treated as error) : 0
Edge jitter error (maybe fixed) : 0
Atom jitter error (maybe fixed) : 0
Drift error (maybe fixed) : 0
Dropped bytes error (maybe fixed) : 0
Duplicated bytes error (maybe fixed) : 0
Track 10
Pre-gap length : 00:00:45
CRC32 hash : A1F3C828
CRC32 hash (skip zero) : E2AB4BB6
AccurateRip signature : 48958860
->Accurately ripped! (confidence 2)
Statistics
Read error : 0
Skipped (treated as error) : 0
Edge jitter error (maybe fixed) : 0
Atom jitter error (maybe fixed) : 0
Drift error (maybe fixed) : 0
Dropped bytes error (maybe fixed) : 0
Duplicated bytes error (maybe fixed) : 0
Track 11
CRC32 hash : 5233EA39
CRC32 hash (skip zero) : 3C331794
AccurateRip signature : B7A2E144
->Accurately ripped! (confidence 2)
Statistics
Read error : 0
Skipped (treated as error) : 0
Edge jitter error (maybe fixed) : 0
Atom jitter error (maybe fixed) : 0
Drift error (maybe fixed) : 0
Dropped bytes error (maybe fixed) : 0
Duplicated bytes error (maybe fixed) : 0
No errors occurred
End of status report

Содержание индексной карты (.CUE)

REM GENRE Contemporary Classical
REM DATE 2003
REM DISCID 860DE30B
SONGWRITER "Hanspeter Kyburz"
PERFORMER "Hanspeter Kyburz"
TITLE "Malstrom/The Voynich Cipher Manuscript/Parts"
FILE "Malstrom_TheVoynichCipherManuscript_Parts.flac" WAVE
TRACK 01 AUDIO
TITLE "Malstrom"
PERFORMER "Hanspeter Kyburz"
INDEX 01 00:00:00
TRACK 02 AUDIO
TITLE "The Voynich Cipher Manuscript: 1"
PERFORMER "Hanspeter Kyburz"
INDEX 00 16:33:58
INDEX 01 16:43:28
TRACK 03 AUDIO
TITLE "The Voynich Cipher Manuscript: 2"
PERFORMER "Hanspeter Kyburz"
INDEX 01 19:56:51
TRACK 04 AUDIO
TITLE "The Voynich Cipher Manuscript: 3"
PERFORMER "Hanspeter Kyburz"
INDEX 01 23:20:12
TRACK 05 AUDIO
TITLE "The Voynich Cipher Manuscript: 4"
PERFORMER "Hanspeter Kyburz"
INDEX 01 26:35:09
TRACK 06 AUDIO
TITLE "The Voynich Cipher Manuscript: 5"
PERFORMER "Hanspeter Kyburz"
INDEX 01 29:53:61
TRACK 07 AUDIO
TITLE "The Voynich Cipher Manuscript: 6"
PERFORMER "Hanspeter Kyburz"
INDEX 01 33:29:21
TRACK 08 AUDIO
TITLE "Parts: 1"
PERFORMER "Hanspeter Kyburz"
INDEX 00 37:01:59
INDEX 01 37:11:28
TRACK 09 AUDIO
TITLE "Parts: 2"
PERFORMER "Hanspeter Kyburz"
INDEX 00 43:39:39
INDEX 01 43:43:09
TRACK 10 AUDIO
TITLE "Parts: 3"
PERFORMER "Hanspeter Kyburz"
INDEX 00 50:22:20
INDEX 01 50:22:65
TRACK 11 AUDIO
TITLE "Parts: 4"
PERFORMER "Hanspeter Kyburz"
INDEX 01 54:43:33



Показать сообщения:    

Текущее время: 11-Дек 09:11

Часовой пояс: UTC + 3


Вы не можете начинать темы
Вы не можете отвечать на сообщения
Вы не можете редактировать свои сообщения
Вы не можете удалять свои сообщения
Вы не можете голосовать в опросах
Вы не можете прикреплять файлы к сообщениям
Вы не можете скачивать файлы