(Orchestral, Ballet) Кнудоге Риисагер - Карртсилуни, Лунный олень / Knudage Riisager - Qarrtsiluni, Manerenen (Aarhus Symphony Orchestra, Bo Holten) - 2005, APE (tracks+.cue) lossless


 

[Цитировать]

Knudåge Riisager - Qarrtsiluni, Månerenen
Жанр: Orchestral, Ballet, Neoclassicism, Folk-inspired
Страна-производитель диска: Denmark
Год издания диска: 2005
Издатель (лейбл): Dacapo
Номер по каталогу: 8.226022
Дата записи: 2004
Аудиокодек: APE
Тип рипа: tracks+.cue
Битрейт аудио: lossless
Продолжительность: 55'49
Источник: скачано с
Наличие сканов в содержимом раздачи: да
Треклист:
Knudåge Riisager (1897-1974)
01. Qarrtsiluni, ballet on Eskimo tunes, Op. 36 (1938) [08:27]
Månerenen, ballet based on a Lapp folk tale, Op. 57 (1956) [47:21]
02. Prelude 02:02
03. Scene 1: Skidans (Skiing Dance) 02:00
04. Scene 1: Glad dans (Happy Dance) 02:48
05. Scene 2: quarter note = 88 02:40
06. Scene 2: Renernes dans (Dance of the Reindeer) 02:40
07. Scene 2: Ailis dans (Aili's Dance) 01:05
08. Scene 2: Ekstatik dans (Ecstatic Dance) 00:28
09. Scene 2: Manerenens dans (Dance of the Moon Reindeer) 02:01
10. Scene 3: dotted half note = 44 01:08
11. Scene 3: Lapperne vil fange Manerenen (The Sami want to catch the Moon Reindeer) 02:40
12. Scene 3: Unas og Manerenens dans (Dance of Una and the Moon Reindeer) 02:54
13. Scene 4: dotted half note = 44 01:25
14. Scene 4: Kaerlighedsdans (Love Dance) 04:50
15. Scene 5: quarter note = 80 09:19
16. Scene 5: Nilas' og Ailis dans (Dance of Nilas and Aili) 03:13
17. Scene 5: Ailis forvandling (Aili's Change) 02:50
18. Scene 5: Spyddans (Spear Dance) 02:49
19. Scene 5: Slutning (Conclusion) 00:53
Исполнители:
Aarhus Symphony Orchestra
Bo Holten, conductor
Rec: Frichsparken, Aarhus, March 2004

Лог создания рипа

Exact Audio Copy V0.99 prebeta 4 from 23. January 2008
EAC extraction logfile from 20. November 2010, 13:59
Riisager, Knudеge / Qarrtsiluni, Op 36/ Mеnerenen, Op 57
Used drive : HL-DT-STDVDRAM GSA-4120B Adapter: 1 ID: 0
Read mode : Secure
Utilize accurate stream : Yes
Defeat audio cache : Yes
Make use of C2 pointers : No
Read offset correction : 667
Overread into Lead-In and Lead-Out : No
Fill up missing offset samples with silence : Yes
Delete leading and trailing silent blocks : No
Null samples used in CRC calculations : No
Used interface : Installed external ASPI interface
Gap handling : Not detected, thus appended to previous track
Used output format : Monkey's Audio Lossless Encoder v3.99 DLL
Sample format : Fast Lossless Compression
TOC of the extracted CD
Track | Start | Length | Start sector | End sector
---------------------------------------------------------
1 | 0:00.00 | 8:27.08 | 0 | 38032
2 | 8:27.08 | 2:02.22 | 38033 | 47204
3 | 10:29.30 | 2:00.27 | 47205 | 56231
4 | 12:29.57 | 2:48.49 | 56232 | 68880
5 | 15:18.31 | 2:40.44 | 68881 | 80924
6 | 17:59.00 | 2:09.01 | 80925 | 90600
7 | 20:08.01 | 1:05.34 | 90601 | 95509
8 | 21:13.35 | 0:28.06 | 95510 | 97615
9 | 21:41.41 | 2:01.02 | 97616 | 106692
10 | 23:42.43 | 1:08.30 | 106693 | 111822
11 | 24:50.73 | 2:40.28 | 111823 | 123850
12 | 27:31.26 | 2:54.41 | 123851 | 136941
13 | 30:25.67 | 1:25.47 | 136942 | 143363
14 | 31:51.39 | 4:50.22 | 143364 | 165135
15 | 36:41.61 | 9:19.49 | 165136 | 207109
16 | 46:01.35 | 3:13.74 | 207110 | 221658
17 | 49:15.34 | 2:50.51 | 221659 | 234459
18 | 52:06.10 | 2:49.49 | 234460 | 247183
19 | 54:55.59 | 0:53.36 | 247184 | 251194
Track 1
Filename C:\TEMP\(01) Qarrtsiluni.ape
Peak level 94.8 %
Track quality 100.0 %
Copy CRC F460E750
Cannot be verified as accurate (confidence 1) [B7C0C5C9], AccurateRip returned [103B16D5]
Copy OK
Track 2
Filename C:\TEMP\(02) Prelude.ape
Peak level 51.4 %
Track quality 100.0 %
Copy CRC 2AF44F7E
Cannot be verified as accurate (confidence 1) [D6804357], AccurateRip returned [930CE649]
Copy OK
Track 3
Filename C:\TEMP\(03) Scene 1 - Skidans.ape
Peak level 47.4 %
Track quality 100.0 %
Copy CRC F3F5563E
Cannot be verified as accurate (confidence 1) [F587BCDB], AccurateRip returned [036CB304]
Copy OK
Track 4
Filename C:\TEMP\(04) Scene 1 - Glad Dans.ape
Peak level 68.3 %
Track quality 99.9 %
Copy CRC B4BE03DC
Cannot be verified as accurate (confidence 1) [CBA3528C], AccurateRip returned [D889765D]
Copy OK
Track 5
Filename C:\TEMP\(05) Scene 2 - = 88.ape
Peak level 61.6 %
Track quality 100.0 %
Copy CRC 416EFEFE
Cannot be verified as accurate (confidence 1) [EF7D2B85], AccurateRip returned [7E02F082]
Copy OK
Track 6
Filename C:\TEMP\(06) Scene 2 - Renernes dans.ape
Peak level 70.0 %
Track quality 100.0 %
Copy CRC 520923AC
Cannot be verified as accurate (confidence 1) [8381F710], AccurateRip returned [F7511918]
Copy OK
Track 7
Filename C:\TEMP\(07) Scene 2 - Ailis Dans.ape
Peak level 35.8 %
Track quality 100.0 %
Copy CRC 9369629A
Cannot be verified as accurate (confidence 1) [8099EA4B], AccurateRip returned [4963653B]
Copy OK
Track 8
Filename C:\TEMP\(08) Scene 2 - Ekstatisk dans.ape
Peak level 71.0 %
Track quality 100.0 %
Copy CRC A83DF952
Cannot be verified as accurate (confidence 1) [65DD1BEA], AccurateRip returned [4B695821]
Copy OK
Track 9
Filename C:\TEMP\(09) Scene 2 - Mеnerenens dans.ape
Peak level 53.1 %
Track quality 100.0 %
Copy CRC C1010F41
Cannot be verified as accurate (confidence 1) [933A4699], AccurateRip returned [6A6227F1]
Copy OK
Track 10
Filename C:\TEMP\(10) Scene 3 - = 44.ape
Peak level 27.1 %
Track quality 99.8 %
Copy CRC DD7B4E9E
Cannot be verified as accurate (confidence 1) [4D297128], AccurateRip returned [F1B87EA0]
Copy OK
Track 11
Filename C:\TEMP\(11) Scene 3 - Lapperne vil fange Mеnerenen.ape
Peak level 52.5 %
Track quality 99.9 %
Copy CRC E053AC0B
Cannot be verified as accurate (confidence 1) [53BCDEF0], AccurateRip returned [3FFF34D9]
Copy OK
Track 12
Filename C:\TEMP\(12) Scene 3 - Unas og Mеnerenens dans.ape
Peak level 57.6 %
Track quality 100.0 %
Copy CRC 083A75B6
Cannot be verified as accurate (confidence 1) [EFCECFE4], AccurateRip returned [06B210D6]
Copy OK
Track 13
Filename C:\TEMP\(13) Scene 4 - = 44.ape
Peak level 12.7 %
Track quality 100.0 %
Copy CRC E8785366
Cannot be verified as accurate (confidence 1) [619A3636], AccurateRip returned [B48C133B]
Copy OK
Track 14
Filename C:\TEMP\(14) Scene 4 - Kжrlighedsdans.ape
Peak level 48.9 %
Track quality 100.0 %
Copy CRC 21DC03EC
Cannot be verified as accurate (confidence 1) [0C3FADCF], AccurateRip returned [DB1BF679]
Copy OK
Track 15
Filename C:\TEMP\(15) Scene 5 - = 80.ape
Peak level 78.9 %
Track quality 100.0 %
Copy CRC 6695D16F
Cannot be verified as accurate (confidence 1) [3D9C2B77], AccurateRip returned [4A0337DC]
Copy OK
Track 16
Filename C:\TEMP\(16) Scene 5 - Nilas' og Ailis dans.ape
Peak level 36.8 %
Track quality 100.0 %
Copy CRC 95E79CE2
Cannot be verified as accurate (confidence 1) [CC2CFC04], AccurateRip returned [DC43789B]
Copy OK
Track 17
Filename C:\TEMP\(17) Scene 5 - Ailis forvandling.ape
Peak level 55.0 %
Track quality 99.9 %
Copy CRC 952C283E
Cannot be verified as accurate (confidence 1) [BD1A3D8E], AccurateRip returned [E2D4BB99]
Copy OK
Track 18
Filename C:\TEMP\(18) Scene 5 - Spyddans.ape
Peak level 68.6 %
Track quality 99.9 %
Copy CRC 320A59EA
Cannot be verified as accurate (confidence 1) [A74371D0], AccurateRip returned [61EF7574]
Copy OK
Track 19
Filename C:\TEMP\(19) Scene 5 - Slutning.ape
Peak level 93.9 %
Track quality 99.8 %
Copy CRC 7E4C2E60
Cannot be verified as accurate (confidence 1) [0192B89C], AccurateRip returned [89B0068F]
Copy OK
No tracks could be verified as accurate
You may have a different pressing from the one(s) in the database
No errors occurred
End of status report

Содержание индексной карты (.CUE)

FILE "(01) Qarrtsiluni.ape" APE
TRACK 01 AUDIO
INDEX 01 00:00:00
FILE "(02) Prelude.ape" APE
TRACK 02 AUDIO
PREGAP 00:04:00
INDEX 01 00:00:00
FILE "(03) Scene 1 - Skidans.ape" APE
TRACK 03 AUDIO
INDEX 01 00:00:00
FILE "(04) Scene 1 - Glad Dans.ape" APE
TRACK 04 AUDIO
INDEX 01 00:00:00
FILE "(05) Scene 2 - = 88.ape" APE
TRACK 05 AUDIO
INDEX 01 00:00:00
FILE "(06) Scene 2 - Renernes dans.ape" APE
TRACK 06 AUDIO
INDEX 01 00:00:00
FILE "(07) Scene 2 - Ailis Dans.ape" APE
TRACK 07 AUDIO
INDEX 01 00:00:00
FILE "(08) Scene 2 - Ekstatisk dans.ape" APE
TRACK 08 AUDIO
INDEX 01 00:00:00
FILE "(09) Scene 2 - Mеnerenens dans.ape" APE
TRACK 09 AUDIO
INDEX 01 00:00:00
FILE "(10) Scene 3 - = 44.ape" APE
TRACK 10 AUDIO
INDEX 01 00:00:00
FILE "(11) Scene 3 - Lapperne vil fange Mеnerenen.ape" APE
TRACK 11 AUDIO
INDEX 01 00:00:00
FILE "(12) Scene 3 - Unas og Mеnerenens dans.ape" APE
TRACK 12 AUDIO
INDEX 01 00:00:00
FILE "(13) Scene 4 - = 44.ape" APE
TRACK 13 AUDIO
INDEX 01 00:00:00
FILE "(14) Scene 4 - Kжrlighedsdans.ape" APE
TRACK 14 AUDIO
INDEX 01 00:00:00
FILE "(15) Scene 5 - = 80.ape" APE
TRACK 15 AUDIO
INDEX 01 00:00:00
FILE "(16) Scene 5 - Nilas' og Ailis dans.ape" APE
TRACK 16 AUDIO
INDEX 01 00:00:00
FILE "(17) Scene 5 - Ailis forvandling.ape" APE
TRACK 17 AUDIO
INDEX 01 00:00:00
FILE "(18) Scene 5 - Spyddans.ape" APE
TRACK 18 AUDIO
INDEX 01 00:00:00
FILE "(19) Scene 5 - Slutning.ape" APE
TRACK 19 AUDIO
INDEX 01 00:00:00
Доп. информация: Творчество Кнудоге Риисагера представляется уникальным продуктом двух традиций - с одной стороны, идущей от Нильсена и датской народной музыки, с другой - от французского импрессионизма и неоклассицизма. Большую популярность в Дании снискали балеты Риисагера за яркость, красочность оркестровки, мелодичность и остроумие музыкального языка. На диске представлены два его общепризнанных шедевра - "Карртсилуни" (1938) и "Лунный олень" (1956).
Qarrtsiluni (в переводе с языка грендландских инуитов "Выжидательная тишина") - ритуальный балет на эскимосские темы . Работа начинается с воинственного призыва к оружию, поддерживаемого мягким остинато ударных, струнных и духовых, которое сохраняется на протяжении всей пьесы. Флейта играет оригинальную грендландскую мелодию. Музыка разворачивается как непрерывное крещендо, что напоминает 'Болеро' Равеля, а в агрессивных моментах - языческие ритуалы "Весны священной".
Балет Månerenen (Лунный олень) основан на лапландской сказке о девушке, которая взамен на приворотное зелье стала прислужницей колдуна, превратившего ёе в красивого белого оленя, заманивавшего охотников в смертельную ловушку, в конце концов девушку-оленя убивает её же возлюбленный. В отличие от первого балета, это масштабная "хореографическая симфония" в 5ти сценах, вдохновлённая фольклором саамов и скандинавскими ландшафтами.
http://teatrix.ru/viewtopic.php?t=4806173



Показать сообщения:    

Текущее время: 18-Янв 02:32

Часовой пояс: UTC + 3


Вы не можете начинать темы
Вы не можете отвечать на сообщения
Вы не можете редактировать свои сообщения
Вы не можете удалять свои сообщения
Вы не можете голосовать в опросах
Вы не можете прикреплять файлы к сообщениям
Вы не можете скачивать файлы