Последняя любовь Савелия Крамарова (Михаил Ананьев) [2014, Документальный, SATRip]


Статистика раздачи [Обновить пиров]
Размер:  514 MB   |    Зарегистрирован:  8 месяцев 19 дней   |    Скачан:  0 раз

Полного источника не было: Никогда

Личеров:  3  [  0 KB/s  ]   Подробная статистика пиров
 
   
 
 
 

[Цитировать]

Последняя любовь Савелия Крамарова
Дата/Год выпуска: 2014
Страна: Россия
Жанр: Документальный
Продолжительность: 00:43:54
Перевод: Не требуется
Режиссер: Михаил Ананьев
Телеканал: ТВЦ
Описание: Фильм о последних годах жизни популярного советского комика Савелия Крамарова, о том, как актёр нашёл своё счастье на чужбине. Почему он уехал на Запад? Может быть из-за того, что устал от несвободы? Захотел голливудской славы? Или хотел сохранить свою главную ценность – радость жизни? Друзья актёра рассказывают о таком Савелии, каким его не знала публика.
качество: SATRip
формат: AVI
Видео: XviD, 704x400 (1.76:1), 25 fps, XviD build 50 ~1499 kbps avg, 0.21 bit/pixel
Аудио: MP3, 48 kHz, MPEG Layer 3, 2 ch, ~128.00 kbps avg

MediaInfo

Продолжительность                        : 43 м.
Общий поток : 1638 Кбит/сек
Программа кодирования : VirtualDubMod 1.5.10.3 | www.virtualdub-fr.org || (build 2550/release)
Библиотека кодирования : VirtualDubMod build 2550/release
Видео
Идентификатор : 0
Формат : MPEG-4 Visual
Профиль формата : Advanced Simple@L5
Параметр BVOP формата : 2
Параметр QPel формата : Нет
Параметр GMC формата : Без точки перехода
Параметр матрицы формата : Default (MPEG)
Идентификатор кодека : XVID
Идентификатор кодека/Подсказка : XviD
Продолжительность : 43 м.
Битрейт : 1500 Кбит/сек
Ширина : 704 пикселя
Высота : 400 пикселей
Соотношение сторон : 16:9
Частота кадров : 25,000 кадров/сек
Цветовое пространство : YUV
Субдискретизация насыщенности : 4:2:0
Битовая глубина : 8 бит
Тип развёртки : Прогрессивная
Метод сжатия : С потерями
Бит/(Пиксели*Кадры) : 0.213
Размер потока : 471 Мбайт (92%)
Библиотека кодирования : XviD 1.2.1 (UTC 2008-12-04)
Аудио
Идентификатор : 1
Формат : MPEG Audio
Версия формата : Version 1
Профиль формата : Layer 3
Идентификатор кодека : 55
Идентификатор кодека/Подсказка : MP3
Продолжительность : 43 м.
Вид битрейта : Постоянный
Битрейт : 128 Кбит/сек
Каналы : 2 канала
Частота : 48,0 КГц
Метод сжатия : С потерями
Размер потока : 40,2 Мбайт (8%)
Выравнивание : Соединение по промежуткам
Продолжительность промежутка : 40 мс. (1,00 видеокадр)
Время предзагрузки промежутка : 504 мс.
Библиотека кодирования : LAME3.99r
Настройки программы : -m s -V 4 -q 2 -lowpass 17 -b 128

Скриншоты

[teatrix.ru].t19275.torrent 
Торрент: Зарегистрирован [ 2016-03-18 12:51 ] · B1017756A606B9FBAC317F1D3ED87BC38DD42C2E

Скачать .torrent

Скачать

11 KB

Статус: проверено
Скачан: 0 раз
Размер: 514 MB
terms.php



Быстрый ответ

Имя:

      
Для отправки сообщений необходимо включить JavaScript
Показать сообщения:    

Текущее время: 06-Дек 15:15

Часовой пояс: UTC + 3


Вы можете начинать темы
Вы можете отвечать на сообщения
Вы не можете редактировать свои сообщения
Вы не можете удалять свои сообщения
Вы не можете голосовать в опросах
Вы не можете прикреплять файлы к сообщениям
Вы можете скачивать файлы