(Chamber) Ульви Кемаль Эркин - Камерная музыка / Ulvi Cemal Erkin - Oda Muzigi / Chamber Music (Nora Bosch, Nadja Nevolovitsch, Jairo Ivan Londono, Timothee & Domitille Coppey) - 2011, FLAC (tracks+.cue) lossless


 

[Цитировать]

Ulvi Cemal Erkin - Oda Müziği / Chamber Music
Жанр: Chamber
Страна-производитель диска: Turkey
Год издания диска: 2011
Издатель (лейбл): AK Muzik
Номер по каталогу: AK11102-2
Дата записи: 2010
Аудиокодек: FLAC
Тип рипа: tracks+.cue
Битрейт аудио: lossless
Продолжительность: 60'12
Источник: скачано с
Наличие сканов в содержимом раздачи: да
Треклист:
Ulvi Cemal Erkin (1906-1972)
Piano Quintet / Piyanolu Beşli, piyano, iki keman, viyola ve viyolensel için, 1943
01 I. Moderato (7:35)
02 II. Adagio Mesto (9:39)
03 III. Ritmico e energico (3:33)
04 IV. Allegro vivo (3:02)
Beş Damla (Five Drops), piyano için beş parça, 1931
05 1. Animato (1:26)
06 2. Lento (2:37)
07 3. Tranquillo (1:38)
08 4. Energico (1:22)
09 5. Moderato (3:27)
Ninni, Improvisation ve Zeybek Türküsü, keman ve piyano için, 1929-32
10 Improvisation for violin and piano (6:48)
11 Ninni (Lullabye) for violin and piano (2:08)
12 Zeybek Türküsü (Zeybek Song) for violin and piano (3:44)
String quartet / Yaylı Çalgılar Dörtlüsü, iki keman, Viyola ve Viyolensel için, 1935-36
13 I. Allegro ma non troppo (4:08)
14 II. Allegro scherzando - sostenuto (2:15)
15 III.NAndante (4:33)
16 IV. Quasi improvvisazione (2:24)
Исполнители:
Nora Bosch (piano)
Nadja Nevolovitsch (viool)
Timothée Coppey (viool)
Jairo Iván Londoño (altviool)
Domitille Coppey (cello)

Лог создания рипа

Exact Audio Copy V1.0 beta 3 from 29. August 2011
EAC extraction logfile from 17. May 2013, 5:48
Ulvi Cemal Erkin / Chamber Music
Used drive : Optiarc DVD+-RW AD-7717H Adapter: 0 ID: 1
Read mode : Secure
Utilize accurate stream : Yes
Defeat audio cache : No
Make use of C2 pointers : No
Read offset correction : 48
Overread into Lead-In and Lead-Out : No
Fill up missing offset samples with silence : Yes
Delete leading and trailing silent blocks : No
Null samples used in CRC calculations : Yes
Used interface : Native Win32 interface for Win NT & 2000
Gap handling : Not detected, thus appended to previous track
Used output format : User Defined Encoder
Selected bitrate : 896 kBit/s
Quality : High
Add ID3 tag : Yes
Command line compressor : C:\Program Files (x86)\Exact Audio Copy\Flac\flac.exe
Additional command line options : -T "artist=%artist%" -T "title=%title%" -T "album=%albumtitle%" -T "date=%year%" -T "tracknumber=%tracknr%" -T "genre=%genre%" -5 %source%
TOC of the extracted CD
Track | Start | Length | Start sector | End sector
---------------------------------------------------------
1 | 0:00.00 | 7:35.31 | 0 | 34155
2 | 7:35.31 | 9:38.45 | 34156 | 77550
3 | 17:14.01 | 3:32.55 | 77551 | 93505
4 | 20:46.56 | 3:01.60 | 93506 | 107140
5 | 23:48.41 | 1:26.03 | 107141 | 113593
6 | 25:14.44 | 2:37.07 | 113594 | 125375
7 | 27:51.51 | 1:38.07 | 125376 | 132732
8 | 29:29.58 | 1:21.44 | 132733 | 138851
9 | 30:51.27 | 3:27.21 | 138852 | 154397
10 | 34:18.48 | 6:48.37 | 154398 | 185034
11 | 41:07.10 | 2:08.27 | 185035 | 194661
12 | 43:15.37 | 3:44.18 | 194662 | 211479
13 | 46:59.55 | 4:07.64 | 211480 | 230068
14 | 51:07.44 | 2:15.01 | 230069 | 240194
15 | 53:22.45 | 4:32.52 | 240195 | 260646
16 | 57:55.22 | 2:23.64 | 260647 | 271435
Track 1
Filename C:\Users\Ali\Music\Ulvi Cemal Erkin - Chamber Music - 01 - Piano Quintet - Moderato.wav
Peak level 98.4 %
Extraction speed 5.0 X
Track quality 100.0 %
Copy CRC CC2309E0
Track not present in AccurateRip database
Copy OK
Track 2
Filename C:\Users\Ali\Music\Ulvi Cemal Erkin - Chamber Music - 02 - Piano Quintet - Adagio Mesto.wav
Peak level 98.4 %
Extraction speed 3.9 X
Track quality 100.0 %
Copy CRC B7E3592E
Track not present in AccurateRip database
Copy OK
Track 3
Filename C:\Users\Ali\Music\Ulvi Cemal Erkin - Chamber Music - 03 - Piano Quintet - Ritmico e energico.wav
Peak level 98.4 %
Extraction speed 2.4 X
Track quality 100.0 %
Copy CRC 80A2E350
Track not present in AccurateRip database
Copy OK
Track 4
Filename C:\Users\Ali\Music\Ulvi Cemal Erkin - Chamber Music - 04 - Piano Quintet - Allegro vivo.wav
Peak level 98.6 %
Extraction speed 1.9 X
Track quality 99.9 %
Copy CRC EF191942
Track not present in AccurateRip database
Copy OK
Track 5
Filename C:\Users\Ali\Music\Ulvi Cemal Erkin - Chamber Music - 05 - Bes Damla (Five Drops) - Animato.wav
Peak level 98.4 %
Extraction speed 2.6 X
Track quality 100.0 %
Copy CRC E190A95B
Track not present in AccurateRip database
Copy OK
Track 6
Filename C:\Users\Ali\Music\Ulvi Cemal Erkin - Chamber Music - 06 - Bes Damla (Five Drops) - Lento.wav
Peak level 98.3 %
Extraction speed 1.3 X
Track quality 99.8 %
Copy CRC 7705E548
Track not present in AccurateRip database
Copy OK
Track 7
Filename C:\Users\Ali\Music\Ulvi Cemal Erkin - Chamber Music - 07 - Bes Damla (Five Drops) - Tranquillo.wav
Peak level 62.0 %
Extraction speed 1.2 X
Track quality 99.8 %
Copy CRC DD978235
Track not present in AccurateRip database
Copy OK
Track 8
Filename C:\Users\Ali\Music\Ulvi Cemal Erkin - Chamber Music - 08 - Bes Damla (Five Drops) - Energico.wav
Peak level 98.4 %
Extraction speed 1.4 X
Track quality 100.0 %
Copy CRC 01C3416C
Track not present in AccurateRip database
Copy OK
Track 9
Filename C:\Users\Ali\Music\Ulvi Cemal Erkin - Chamber Music - 09 - Bes Damla (Five Drops) - Moderato.wav
Peak level 98.4 %
Extraction speed 1.4 X
Track quality 100.0 %
Copy CRC F68EF4E9
Track not present in AccurateRip database
Copy OK
Track 10
Filename C:\Users\Ali\Music\Ulvi Cemal Erkin - Chamber Music - 10 - Improvisation for violin and piano.wav
Peak level 98.4 %
Extraction speed 1.2 X
Track quality 99.9 %
Copy CRC 461AE95F
Track not present in AccurateRip database
Copy OK
Track 11
Filename C:\Users\Ali\Music\Ulvi Cemal Erkin - Chamber Music - 11 - Ninni (Lullabye) for violin and piano.wav
Peak level 12.4 %
Extraction speed 1.3 X
Track quality 100.0 %
Copy CRC CDBECB42
Track not present in AccurateRip database
Copy OK
Track 12
Filename C:\Users\Ali\Music\Ulvi Cemal Erkin - Chamber Music - 12 - Zeybek Turkusu (Zeybek Song) for violin and piano.wav
Peak level 98.4 %
Extraction speed 1.2 X
Track quality 99.9 %
Copy CRC 1130B57D
Track not present in AccurateRip database
Copy OK
Track 13
Filename C:\Users\Ali\Music\Ulvi Cemal Erkin - Chamber Music - 13 - String quartet - Allegro ma non troppo.wav
Peak level 98.5 %
Extraction speed 1.3 X
Track quality 100.0 %
Copy CRC F1EF6092
Track not present in AccurateRip database
Copy OK
Track 14
Filename C:\Users\Ali\Music\Ulvi Cemal Erkin - Chamber Music - 14 - String quartet - Allegro scherzando - sostenuto.wav
Peak level 98.7 %
Extraction speed 1.2 X
Track quality 99.8 %
Copy CRC 547E2F81
Track not present in AccurateRip database
Copy OK
Track 15
Filename C:\Users\Ali\Music\Ulvi Cemal Erkin - Chamber Music - 15 - String quartet - Andante.wav
Peak level 98.4 %
Extraction speed 1.3 X
Track quality 99.9 %
Copy CRC 1A6B98B5
Track not present in AccurateRip database
Copy OK
Track 16
Filename C:\Users\Ali\Music\Ulvi Cemal Erkin - Chamber Music - 16 - String quartet - Quasi improvvisazione.wav
Peak level 98.7 %
Extraction speed 1.0 X
Track quality 99.8 %
Copy CRC 191AC810
Track not present in AccurateRip database
Copy OK
None of the tracks are present in the AccurateRip database
No errors occurred
End of status report

Содержание индексной карты (.CUE)

REM GENRE Classical
REM DATE 2011
REM COMMENT "ExactAudioCopy v1.0b3"
PERFORMER "Various Artists"
TITLE "Chamber Music"
REM DATE 2011
REM DISCNUMBER 1
REM TOTALDISCS 1
REM GENRE "Classical"
FILE "01. Piano Quintet - Moderato.flac" WAVE
TRACK 01 AUDIO
PERFORMER "Ulvi Cemal Erkin"
TITLE "Piano Quintet - Moderato"
INDEX 01 00:00:00
FILE "02. Piano Quintet - Adagio Mesto.flac" WAVE
TRACK 02 AUDIO
PERFORMER "Ulvi Cemal Erkin"
TITLE "Piano Quintet - Adagio Mesto"
INDEX 01 00:00:00
FILE "03. Piano Quintet - Ritmico e energico.flac" WAVE
TRACK 03 AUDIO
PERFORMER "Ulvi Cemal Erkin"
TITLE "Piano Quintet - Ritmico e energico"
INDEX 01 00:00:00
FILE "04. Piano Quintet - Allegro vivo.flac" WAVE
TRACK 04 AUDIO
PERFORMER "Ulvi Cemal Erkin"
TITLE "Piano Quintet - Allegro vivo"
INDEX 01 00:00:00
FILE "05. Bes Damla (Five Drops) - Animato.flac" WAVE
TRACK 05 AUDIO
PERFORMER "Ulvi Cemal Erkin"
TITLE "Bes Damla (Five Drops) - Animato"
INDEX 01 00:00:00
FILE "06. Bes Damla (Five Drops) - Lento.flac" WAVE
TRACK 06 AUDIO
PERFORMER "Ulvi Cemal Erkin"
TITLE "Bes Damla (Five Drops) - Lento"
INDEX 01 00:00:00
FILE "07. Bes Damla (Five Drops) - Tranquillo.flac" WAVE
TRACK 07 AUDIO
PERFORMER "Ulvi Cemal Erkin"
TITLE "Bes Damla (Five Drops) - Tranquillo"
INDEX 01 00:00:00
FILE "08. Bes Damla (Five Drops) - Energico.flac" WAVE
TRACK 08 AUDIO
PERFORMER "Ulvi Cemal Erkin"
TITLE "Bes Damla (Five Drops) - Energico"
INDEX 01 00:00:00
FILE "09. Bes Damla (Five Drops) - Moderato.flac" WAVE
TRACK 09 AUDIO
PERFORMER "Ulvi Cemal Erkin"
TITLE "Bes Damla (Five Drops) - Moderato"
INDEX 01 00:00:00
FILE "10. Improvisation for violin and piano.flac" WAVE
TRACK 10 AUDIO
PERFORMER "Ulvi Cemal Erkin"
TITLE "Improvisation for violin and piano"
INDEX 01 00:00:00
FILE "11. Ninni (Lullabye) for violin and piano.flac" WAVE
TRACK 11 AUDIO
PERFORMER "Ulvi Cemal Erkin"
TITLE "Ninni (Lullabye) for violin and piano"
INDEX 01 00:00:00
FILE "12. Zeybek Turkusu (Zeybek Song) for violin and piano.flac" WAVE
TRACK 12 AUDIO
PERFORMER "Ulvi Cemal Erkin"
TITLE "Zeybek Turkusu (Zeybek Song) for violin and piano"
INDEX 01 00:00:00
FILE "13. String quartet - Allegro ma non troppo.flac" WAVE
TRACK 13 AUDIO
PERFORMER "Ulvi Cemal Erkin"
TITLE "String quartet - Allegro ma non troppo"
INDEX 01 00:00:00
FILE "14. String quartet - Allegro scherzando - sostenuto.flac" WAVE
TRACK 14 AUDIO
PERFORMER "Ulvi Cemal Erkin"
TITLE "String quartet - Allegro scherzando - sostenuto"
INDEX 01 00:00:00
FILE "15. String quartet - Andante.flac" WAVE
TRACK 15 AUDIO
PERFORMER "Ulvi Cemal Erkin"
TITLE "String quartet - Andante"
INDEX 01 00:00:00
FILE "16. String quartet - Quasi improvvisazione.flac" WAVE
TRACK 16 AUDIO
PERFORMER "Ulvi Cemal Erkin"
TITLE "String quartet - Quasi improvvisazione"
INDEX 01 00:00:00
Доп. информация: Ульви Кемаль (Джемаль) Эркин (1906-1972) - один из пионеров турецкой классики, ученик Нади Буланже, участник "Турецкой пятёрки", создавший в 30е-40е годы XX века ряд основополагающих для национальной музыкальной академической традиции произведений. На диске представлена вся камерная музыка композитора, исполненная вне Турции музыкантами из разных стран - Фортепианный квинтет (1943), Струнный квартет (1935-36), "Колыбельная, Импровизация и Зейбек" для скрипки и фортепиано (1929-32) и фортепианный цикл "Пять капель" (1931). Произведения Эркина отличаются интересными инструментальными красками, проникновенными мелодиями, очень богатой и сложной ритмической структурой. Будучи большим знатоком турецкой народной музыки он мастерски сочетал национальную характерность с современными средствами композиторской техники, воспринятыми от французских импрессионистов, особенно от Равеля. В его сочинениях романтическая экспрессия соседствует с изысканной меланхоличной звукописью и свободой выражения импрессионизма, импровизационностью и модальными особенностями, свойственными традиционным ритмам Анатолии "Хорон", "Кучек", “Халай” и др.



Показать сообщения:    

Текущее время: 10-Дек 23:32

Часовой пояс: UTC + 3


Вы не можете начинать темы
Вы не можете отвечать на сообщения
Вы не можете редактировать свои сообщения
Вы не можете удалять свои сообщения
Вы не можете голосовать в опросах
Вы не можете прикреплять файлы к сообщениям
Вы не можете скачивать файлы