(Classical) [LP] [24/48] Дирижер Вильгельм Фуртвенглер - Из Сокровищницы Мирового Исполнительского Искусства (R. Schumann, A. Bruckner) - 1980,[2LP], FLAC (image+.cue)


Статистика раздачи [Обновить пиров]
Размер:  508 MB   |    Зарегистрирован:  8 месяцев 23 дня   |    Скачан:  0 раз

Полного источника не было: Никогда

Личеров:  3  [  0 KB/s  ]   Подробная статистика пиров
 
   
 
 
 

[Цитировать]

Дирижер Вильгельм Фуртвенглер - Из Сокровищницы Мирового Исполнительского Искусства [2LP]
Жанр: Classical
Носитель: LP
Год выпуска: 1980
Лейбл: Melodya
Страна-производитель: USSR
Аудио кодек: FLAC
Тип рипа: image+.cue
Формат записи: 32/192
Формат раздачи: 24/48
Продолжительность: 1.30.55 min
Треклист:
Side 1:
R.Schumann (1810-1856)
Concerto for Cello and Orchestra In A Minor.Op.129
01. Nicht zu schnell
02. Langsam
03. Sehr Lebhaft
Tibor de Machula,cello
Side 2:
A.Bruckner (1824-1896)
Symphony N.5 In B Flat Major (Original version)
04. Adagio.Allegro
Side 3:
05. Adagio
06. Scherzo.Motto vivace
Side 4:
07. Finale.Adagio.Allegro moderato
Berlin Philarmonic Orchestra
Источник оцифровки: автором раздачи
Код класса состояния винила: Mint
Устройство воспроизведения: Электроника ЭП 017С
Головка звукоснимателя: Audio-Technica AT95
Предварительный усилитель: Бриг-001
АЦП: VIA HD audio device
Программа-оцифровщик: Izotope RX III Advanced
Обработка: Manual

Спектр+АЧХ+Уровень записи


DR=12

foobar2000 1.1.10 / Dynamic Range Meter 1.1.1
log date: 2014-10-20 19:55:43
--------------------------------------------------------------------------------
Analyzed: Wilhelm Furtwangler / Conductors
--------------------------------------------------------------------------------
DR Peak RMS Duration Track
--------------------------------------------------------------------------------
DR12 -0.58 dB -18.18 dB 10:42 ?-Nicht zu schnell
DR12 -5.86 dB -25.80 dB 3:18 ?-Langsam
DR12 -0.01 dB -17.71 dB 8:17 ?-Sehr Lebhaft
DR13 0.00 dB -18.55 dB 19:09 ?-Adagio.Allegro
DR11 -0.34 dB -17.83 dB 15:26 ?-Adagio
DR13 -0.01 dB -18.07 dB 12:04 ?-Scherzo.Motto vivace
DR12 -0.03 dB -17.72 dB 21:58 ?-Finale.Adagio.Allegro moderato
--------------------------------------------------------------------------------
Number of tracks: 7
Official DR value: DR12
Samplerate: 48000 Hz
Channels: 1
Bits per sample: 24
Bitrate: 771 kbps
Codec: FLAC
================================================================================

Back,Inside & Disc







[teatrix.ru].t19278.torrent 
Торрент: Зарегистрирован [ 2016-03-18 12:51 ] · 45622A0F4E5AB3242A870CE61B53C208A6EF7DCA

Скачать .torrent

Скачать

21 KB

Статус: проверено
Скачан: 0 раз
Размер: 508 MB
terms.php



Быстрый ответ

Имя:

      
Для отправки сообщений необходимо включить JavaScript
Показать сообщения:    

Текущее время: 10-Дек 17:47

Часовой пояс: UTC + 3


Вы можете начинать темы
Вы можете отвечать на сообщения
Вы не можете редактировать свои сообщения
Вы не можете удалять свои сообщения
Вы не можете голосовать в опросах
Вы не можете прикреплять файлы к сообщениям
Вы можете скачивать файлы