Мишель Фуко против самого себя / Foucault contre lui-meme (Франсуа Кайа / Francois Caillat) [2014, документальный, современная философия, DVB] Original (Fre) + Sub (Rus)


Статистика раздачи [Обновить пиров]
Размер:  1.45 GB   |    Зарегистрирован:  8 месяцев 16 дней   |    Скачан:  0 раз

Полного источника не было: Никогда

Личеров:  12  [  0 KB/s  ]   Подробная статистика пиров
 
   
 
 
 

[Цитировать]

Фуко против самого себя
Foucault contre lui-même- Дата/Год выпуска: 2014
Страна: Франция
Жанр: документальный, современная философия
Продолжительность: 00:53:05
Перевод: Субтитры
Русские субтитры: есть
Формат субтитров: hardsub (неотключаемые)
Доп. информация о субтитрах: перевод О.Першиной, Éclair Group
Оригинальная аудиодорожка: французский
Режиссер: Франсуа Кайа / François Caillat
Телеканал: TV5MONDEОписание: Фильм посвящен французскому философу, теоретику культуры и историку Мишелю Фуко (1926-1984), создавшему первую во Франции кафедру психоанализа. Фуко является одним из наиболее известных представителей антипсихиатрии. Книги Фуко о социальных науках, медицине, тюрьмах, проблеме безумия и сексуальности сделали его одним из самых влиятельных мыслителей XX века.
С одной стороны, Фуко был обычным человеком, типичным "героем нашего времени" в том смысле, что не избежал многих проблем, характерных для современного мыслителя и интеллектуала. Он был достаточно одинок, особенно в молодости, остро переживал свою нестандартную половую ориентацию, не имел семьи в обычном смысле слова (хотя много лет Фуко жил со своим близким другом), жил экзистенциальными проблемами, умер от СПИДа. С другой стороны, Фуко был социально активным человеком, инициатором ряда известных общественных начинаний, резко критиковал современное буржуазное общество, пытался разрешить экзистенциальные проблемы, рассматривал мышление как одну из главных ценностей. (Розин В.М., Типы и дискурсы научного мышления, М., "Либроком", 2012 г.)
Доп. информация: DVB-S. На территории РФ возрастное ограничение 18+.
Участник Le Marathon des mots festival (Toulouse) 2014.

качество: DVB
формат: MKV
Видео: MPEG Video 2, 704x576@1024x576 (16:9), 25 fps, ~3650 kbps avg, 0.360 bit/pixel
Аудио: Французский (MPEG Audio 2, 2 ch, 48 kHz, ~192.00 kbps avg)

MediaInfo

Общее
Уникальный идентификатор : 250289587840034392562687325735050597659 (0xBC4C056D4B4C79CAAB87AFF30B34D51B)
Полное имя : E:\My Torrents 2\[apreder]Foucault_contre_lui-meme(2014)DVB.mkv
Формат : Matroska
Версия формата : Version 2
Размер файла : 1,45 Гбайт
Продолжительность : 53 м.
Режим общего битрейта : Переменный
Общий поток : 3920 Кбит/сек
Дата кодирования : UTC 2014-10-20 16:08:45
Программа кодирования : mkvmerge v7.2.0 ('On Every Street') 64bit built on Sep 13 2014 15:52:10
Библиотека кодирования : libebml v1.3.0 + libmatroska v1.4.1
Видео
Идентификатор : 1
Формат : MPEG Video
Версия формата : Version 2
Профиль формата : Main@Main
Параметр BVOP формата : Нет
Параметр матрицы формата : Выборочная
Format_Settings_PictureStructure : Frame
Идентификатор кодека : V_MPEG2
Идентификатор кодека/Информация : MPEG 1 or 2 Video
Продолжительность : 53 м.
Вид битрейта : Переменный
Битрейт : 3650 Кбит/сек
Максимальный битрейт : 7166 Кбит/сек
Ширина : 704 пикселя
Высота : 576 пикселей
Соотношение сторон : 16:9
Режим частоты кадров : Постоянный
Частота кадров : 25,000 кадров/сек
Стандарт вещания : PAL
Цветовое пространство : YUV
Субдискретизация насыщенности : 4:2:0
Битовая глубина : 8 бит
Тип развёртки : Чересстрочная
Порядок развёртки : Верхнее поле первое
Метод сжатия : С потерями
Бит/(Пиксели*Кадры) : 0.360
Временной код первого кадра : 00:00:00:00
Оригинал временного кода : Group of pictures header
Размер потока : 1,35 Гбайт (93%)
Default : Да
Forced : Нет
Аудио
Идентификатор : 2
Формат : MPEG Audio
Версия формата : Version 1
Профиль формата : Layer 2
Идентификатор кодека : A_MPEG/L2
Идентификатор кодека/Подсказка : MP2
Продолжительность : 53 м.
Вид битрейта : Постоянный
Битрейт : 192 Кбит/сек
Каналы : 2 канала
Частота : 48,0 КГц
Метод сжатия : С потерями
Размер потока : 72,9 Мбайт (5%)
Язык : French
Default : Да
Forced : Нет

Скриншоты


Резервные скриншоты


-[1'830]
[teatrix.ru].t19279.torrent 
Торрент: Зарегистрирован [ 2016-03-18 12:47 ] · B398FA53764E67EF0AE92D31A7DF7E92F0442EA7

Скачать .torrent

Скачать

15 KB

Статус: проверено
Скачан: 0 раз
Размер: 1.45 GB
terms.php



Быстрый ответ

Имя:

      
Для отправки сообщений необходимо включить JavaScript
Показать сообщения:    

Текущее время: 03-Дек 20:45

Часовой пояс: UTC + 3


Вы можете начинать темы
Вы можете отвечать на сообщения
Вы не можете редактировать свои сообщения
Вы не можете удалять свои сообщения
Вы не можете голосовать в опросах
Вы не можете прикреплять файлы к сообщениям
Вы можете скачивать файлы