(Classical, contemporary) Harri Vuori - Symphonies Nos. 1 & 2 - Hyvinkää (Hyvinkaa) Orchestra, Tuomas Pirilä (Pirila) - 2008, FLAC (image+.cue) lossless


 

[Цитировать]

Harri Vuori - Symphonies Nos. 1 & 2 - Hyvinkää Orchestra, Tuomas Pirilä
Жанр: Classical, contemporary
Страна-производитель диска: UK
Год издания диска: 2008
Издатель (лейбл): Toccata Classics
Номер по каталогу: TOCC 0087
Дата записи: 2006, 2007
Аудиокодек: FLAC
Тип рипа: image+.cue
Битрейт аудио: lossless
Продолжительность: 76:11
Источник: собственный рип
Наличие сканов в содержимом раздачи: да
Треклист:
Harri Vuori (b.1957)
[1]-[4] Symphony No. 1 (2003)
[5]-[9] Symphony No. 2 (2007)
Исполнители:
Hyvinkää Orchestra
Tuomas Pirilä
conductor

Лог создания рипа

Exact Audio Copy V1.0 beta 3 from 29. August 2011
EAC extraction logfile from 4. October 2014, 14:46
Hyvinkaa Orhestra, Tuomas Pirila / Vuori - Symphonies Nos. 1 & 2
Used drive : HL-DT-STDVDRAM GU70N Adapter: 0 ID: 0
Read mode : Secure
Utilize accurate stream : Yes
Defeat audio cache : Yes
Make use of C2 pointers : No
Read offset correction : 48
Overread into Lead-In and Lead-Out : No
Fill up missing offset samples with silence : Yes
Delete leading and trailing silent blocks : No
Null samples used in CRC calculations : Yes
Used interface : Native Win32 interface for Win NT & 2000
Used output format : User Defined Encoder
Selected bitrate : 128 kBit/s
Quality : High
Add ID3 tag : No
Command line compressor : C:\Program Files (x86)\Exact Audio Copy\Flac\flac.exe
Additional command line options : -V -8 -T "Date=%year%" -T "Genre=%genre%" %source%
TOC of the extracted CD
Track | Start | Length | Start sector | End sector
---------------------------------------------------------
1 | 0:00.00 | 14:46.45 | 0 | 66494
2 | 14:46.45 | 9:36.02 | 66495 | 109696
3 | 24:22.47 | 4:32.71 | 109697 | 130167
4 | 28:55.43 | 8:51.44 | 130168 | 170036
5 | 37:47.12 | 6:10.28 | 170037 | 197814
6 | 43:57.40 | 9:40.26 | 197815 | 241340
7 | 53:37.66 | 10:07.68 | 241341 | 286933
8 | 63:45.59 | 6:26.59 | 286934 | 315942
9 | 70:12.43 | 5:56.51 | 315943 | 342693
Range status and errors
Selected range
Filename C:\temp\Vuori - Symphonies Nos. 1 & 2\Vuori - Symphonies Nos. 1 & 2.wav
Peak level 93.9 %
Extraction speed 2.3 X
Range quality 100.0 %
Test CRC 77E3A33E
Copy CRC 77E3A33E
Copy OK
No errors occurred
AccurateRip summary
Track 1 accurately ripped (confidence 1) [0744DAAF] (AR v2)
Track 2 accurately ripped (confidence 1) [2009C1A0] (AR v2)
Track 3 accurately ripped (confidence 1) [06F4B9E6] (AR v2)
Track 4 accurately ripped (confidence 1) [1884CE02] (AR v2)
Track 5 accurately ripped (confidence 1) [4534B232] (AR v2)
Track 6 accurately ripped (confidence 1) [85AD5265] (AR v2)
Track 7 accurately ripped (confidence 1) [F16B12BA] (AR v2)
Track 8 accurately ripped (confidence 1) [CBCF51CF] (AR v2)
Track 9 accurately ripped (confidence 1) [6283D38E] (AR v2)
All tracks accurately ripped
End of status report
==== Log checksum 21F6A34F060F63E2B0286EA01C6F5072F35A72FC613A3E288F8984D8DB1A8EE8 ====



Показать сообщения:    

Текущее время: 10-Дек 21:37

Часовой пояс: UTC + 3


Вы не можете начинать темы
Вы не можете отвечать на сообщения
Вы не можете редактировать свои сообщения
Вы не можете удалять свои сообщения
Вы не можете голосовать в опросах
Вы не можете прикреплять файлы к сообщениям
Вы не можете скачивать файлы