(Vocal, Opera) Elina Garanca - Meditation (Latvijas Radio koris, Deutsche Radio Philharmonie, Chichon / Gounod, Praulins, Mascagni, Gomez, Mozart, Bizet, Puccini, Adam, Vasks, Allegri, Вавилов, Caccini) - 2014, FLAC (image+.cue) lossless


 

[Цитировать]

Elīna Garanča - Meditation
Жанр: Vocal, Opera
Страна-производитель диска: USA
Год издания диска: 2014
Издатель (лейбл): Deutsche Grammophon / Universal Music Classics
Номер по каталогу: B0021327-02
Дата записи: 2013
Аудиокодек: FLAC
Тип рипа: image+.cue
Битрейт аудио: lossless
Продолжительность: 01:11:42
Источник: собственный рип
Наличие сканов в содержимом раздачи: да
Треклист:
01. Sanctus - Charles Gounod 5:38
02. Repentir (O Divine Redeemer) - Charles Gounod 6:34
03. Dievaines - Uģis Prauliņš 6:24
04. Regina coeli laetare - Pietro Mascagni 5:55
05. Ave Maria - Pietro Mascagni 3:49
06. Ave Maria - William Gomez 3:51
07. Laudate Dominum - Wolfgang Amadeus Mozart 5:08
08. Agnus Dei - Georges Bizet 3:54
09. Salve Regina - Giacomo Puccini 6:38
10. Cantique de Noël - Adolphe Adam 5:25
11. Dusi, dusi - Pēteris Vasks 1:33
12. Paldies tev, vēlā saule - Pēteris Vasks 2:49
13. Miserere - Gregorio Allegri 8:16
14. Ave Maria - Vladimir Vavilov / Giulio Caccini 5:41
Исполнители:
Elīna Garanča, mezzo-soprano
Latvijas Radio koris
Sigvards Kļava - chorus master, conductor (11 & 12)
German Radio Philharmonic Saarbrücken Kaiserslautern
Karel Mark Chichon - conductor
Gunther Rost - organ solo (9)
Grigory Mordashov - tin whistle (3)
Boris Bjorn Bagger - guitar (3)
Members of the Opernchor Saarbrücken (4)
Recording information: Sendesaal, Saarländischer Rundfunk, Funkhaus Halberg (10/2013)

Лог создания рипа

Exact Audio Copy V1.0 beta 3 from 29. August 2011
EAC extraction logfile from 19. October 2014, 20:48
Eliina Garancha / Meditation
Used drive : PIONEER BD-RW BDR-206D Adapter: 1 ID: 1
Read mode : Secure
Utilize accurate stream : Yes
Defeat audio cache : Yes
Make use of C2 pointers : No
Read offset correction : 667
Overread into Lead-In and Lead-Out : No
Fill up missing offset samples with silence : Yes
Delete leading and trailing silent blocks : No
Null samples used in CRC calculations : Yes
Used interface : Native Win32 interface for Win NT & 2000
Used output format : User Defined Encoder
Selected bitrate : 1024 kBit/s
Quality : High
Add ID3 tag : No
Command line compressor : H:\Program Files\Exact Audio Copy\FLAC\FLAC.EXE
Additional command line options : -V -8 -T "Date=%year%" -T "Genre=%genre%" %source%
TOC of the extracted CD
Track | Start | Length | Start sector | End sector
---------------------------------------------------------
1 | 0:00.00 | 5:38.54 | 0 | 25403
2 | 5:38.54 | 6:34.32 | 25404 | 54985
3 | 12:13.11 | 6:24.56 | 54986 | 83841
4 | 18:37.67 | 5:55.38 | 83842 | 110504
5 | 24:33.30 | 3:49.36 | 110505 | 127715
6 | 28:22.66 | 3:51.53 | 127716 | 145093
7 | 32:14.44 | 5:08.67 | 145094 | 168260
8 | 37:23.36 | 3:54.15 | 168261 | 185825
9 | 41:17.51 | 6:38.25 | 185826 | 215700
10 | 47:56.01 | 5:25.27 | 215701 | 240102
11 | 53:21.28 | 1:33.37 | 240103 | 247114
12 | 54:54.65 | 2:49.48 | 247115 | 259837
13 | 57:44.38 | 8:16.03 | 259838 | 297040
14 | 66:00.41 | 5:41.19 | 297041 | 322634
Range status and errors
Selected range
Filename L:\Audio Lossless Latvija\Elina Garanca. 2014 Meditation\Eliina Garancha - Meditation.wav
Peak level 98.4 %
Extraction speed 7.9 X
Range quality 100.0 %
Test CRC D71E7679
Copy CRC D71E7679
Copy OK
No errors occurred
AccurateRip summary
Track 1 not present in database
Track 2 not present in database
Track 3 not present in database
Track 4 not present in database
Track 5 not present in database
Track 6 not present in database
Track 7 not present in database
Track 8 not present in database
Track 9 not present in database
Track 10 not present in database
Track 11 not present in database
Track 12 not present in database
Track 13 not present in database
Track 14 not present in database
None of the tracks are present in the AccurateRip database
End of status report
==== Log checksum 0F4AAB99C25945500382277BC79CDE0FA76E2862EA8332300D51D47ACE76670F ====

Содержание индексной карты (.CUE)

REM GENRE Classical
REM DATE 2014
REM DISCID D310CD0E
REM COMMENT "ExactAudioCopy v1.0b3"
PERFORMER "Eliina Garancha"
TITLE "Meditation"
FILE "Eliina Garancha - Meditation.flac" WAVE
TRACK 01 AUDIO
TITLE "Charles Gounod - Sanctus"
PERFORMER "Eliina Garancha"
INDEX 01 00:00:00
TRACK 02 AUDIO
TITLE "Charles Gounod - Repentir (O Divine Redeemer)"
PERFORMER "Eliina Garancha"
INDEX 01 05:38:54
TRACK 03 AUDIO
TITLE "Ugjis Praulinjsh - Dievaines"
PERFORMER "Eliina Garancha"
INDEX 01 12:13:11
TRACK 04 AUDIO
TITLE "Pietro Mascagni - Regina coeli laetare"
PERFORMER "Eliina Garancha"
INDEX 01 18:37:67
TRACK 05 AUDIO
TITLE "Pietro Mascagni - Ave Maria"
PERFORMER "Eliina Garancha"
INDEX 01 24:33:30
TRACK 06 AUDIO
TITLE "William Gomez - Ave Maria"
PERFORMER "Eliina Garancha"
INDEX 01 28:22:66
TRACK 07 AUDIO
TITLE "Wolfgang Amadeus Mozart - Laudate Dominum"
PERFORMER "Eliina Garancha"
INDEX 01 32:14:44
TRACK 08 AUDIO
TITLE "Georges Bizet - Agnus Dei"
PERFORMER "Eliina Garancha"
INDEX 01 37:23:36
TRACK 09 AUDIO
TITLE "Giacomo Puccini - Salve Regina"
PERFORMER "Eliina Garancha"
INDEX 01 41:17:51
TRACK 10 AUDIO
TITLE "Adolphe Adam - Cantique de Noel (O Holy Night)"
PERFORMER "Eliina Garancha"
INDEX 01 47:56:01
TRACK 11 AUDIO
TITLE "Peeteris Vasks - Dusi, dusi"
PERFORMER "Eliina Garancha"
INDEX 01 53:21:28
TRACK 12 AUDIO
TITLE "Peeteris Vasks - Paldies tev, veelaa saule"
PERFORMER "Eliina Garancha"
INDEX 01 54:54:65
TRACK 13 AUDIO
TITLE "Gregorio Allegri - Miserere"
PERFORMER "Eliina Garancha"
INDEX 01 57:44:38
TRACK 14 AUDIO
TITLE "Vladimir Vavilov / Giulio Caccini - Ave Maria"
PERFORMER "Eliina Garancha"
INDEX 01 66:00:41



Показать сообщения:    

Текущее время: 08-Дек 05:02

Часовой пояс: UTC + 3


Вы не можете начинать темы
Вы не можете отвечать на сообщения
Вы не можете редактировать свои сообщения
Вы не можете удалять свои сообщения
Вы не можете голосовать в опросах
Вы не можете прикреплять файлы к сообщениям
Вы не можете скачивать файлы