(Classical, period) Гуммель – Сонаты скрипичные и альтовая, op. 5 / Hummel – Violin & Viola Sonatas, Op. 5 (Paul Luchkow, Michael Jarvis) - 2011, FLAC (image+.cue) lossless


 

[Цитировать]

Гуммель – Сонаты скрипичные и альтовая, op. 5 / Hummel – Violin & Viola Sonatas, Op. 5 (Paul Luchkow, Michael Jarvis)
Жанр: Classical, period
Страна-производитель диска: Канада
Год издания диска: 2011
Издатель (лейбл): MARQUIS
Номер по каталогу: MAR 81419
Дата записи: 21 — 23 июня 2011 г., частный дом в агломерации Ванкувера (Greater Vancouver)
Аудиокодек: FLAC
Тип рипа: image+.cue
Битрейт аудио: lossless
Продолжительность: 01:02:53
Источник: odeonmusic
Наличие сканов в содержимом раздачи: да
Треклист:
Иоганн Непомук Гуммель (1778 — 1837).
Три сонаты для фортепиано, op. 5 (ок. 1798).
Соната № 2 F-dur с обязательной скрипкой.
01. I. Allegro con spirito [07:01].
02. II. Andantino con grand' espressione [04:52].
03. III. Rondo alla polacca. Un poco moderato [05:00].
Соната № 3 Es-dur с обязательным альтом.
04. I. Allegro moderato [11:32].
05. II. Adagio cantabile [05:22].
06. III. Rondo con moto [06:44].
Соната № 1 B-dur с обязательной скрипкой.
07. I. Allegro moderato [08:42].
08. II. Andante con variazioni [05:59].
09. III. Rondo [07:41].
Исполнители:
Paul Luchkow (скрипка, альт),
Michael Jarvis (fortepiano, ок. 1800).
Инструменты эпохи и копии.

Лог создания рипа

Exact Audio Copy V1.0 beta 3 from 29. August 2011
EAC extraction logfile from 25. August 2014, 10:17
Paul Luchkow / Hummel - Sonatas for Fortepiano and Violin / Viola op.5 - Paul Luchkow
Used drive : TSSTcorpCDDVDW SH-222BB Adapter: 2 ID: 1
Read mode : Secure
Utilize accurate stream : Yes
Defeat audio cache : Yes
Make use of C2 pointers : No
Read offset correction : 6
Overread into Lead-In and Lead-Out : No
Fill up missing offset samples with silence : Yes
Delete leading and trailing silent blocks : No
Null samples used in CRC calculations : Yes
Used interface : Native Win32 interface for Win NT & 2000
Used output format : User Defined Encoder
Selected bitrate : 896 kBit/s
Quality : High
Add ID3 tag : No
Command line compressor : C:\Program Files\Exact Audio Copy\FLAC\FLAC.EXE
Additional command line options : -8 -V -T "TITLE=%title%" -T "ARTIST=%artist%" -T "ALBUMARTIST=%albumartist%" -T "ALBUM=%albumtitle%" -T "DATE=%year%" -T "TRACKNUMBER=%tracknr%" -T "TRACKTOTAL=%numtracks%" -T "GENRE=%genre%" -T "COMMENT=%comment%" -T "PERFORMER=%albuminterpret%" -T "COMPOSER=%composer%" %source% -o %dest%
TOC of the extracted CD
Track | Start | Length | Start sector | End sector
---------------------------------------------------------
1 | 0:00.00 | 7:01.21 | 0 | 31595
2 | 7:01.21 | 4:52.22 | 31596 | 53517
3 | 11:53.43 | 5:00.37 | 53518 | 76054
4 | 16:54.05 | 11:31.59 | 76055 | 127938
5 | 28:25.64 | 5:21.51 | 127939 | 152064
6 | 33:47.40 | 6:44.27 | 152065 | 182391
7 | 40:31.67 | 8:41.44 | 182392 | 221510
8 | 49:13.36 | 5:59.07 | 221511 | 248442
9 | 55:12.43 | 7:40.40 | 248443 | 282982
Range status and errors
Selected range
Filename G:\Ripped general\[7831] Hummel – Sonatas for Fortepiano and Violin-Viola op.5 – Paul Luchkow\Hummel - Sonatas for Fortepiano and Violin , Viola op.5 - Paul Luchkow.wav
Peak level 90.5 %
Extraction speed 6.4 X
Range quality 100.0 %
Test CRC D8FC210C
Copy CRC D8FC210C
Copy OK
No errors occurred
AccurateRip summary
Track 1 accurately ripped (confidence 1) [4144C97E] (AR v2)
Track 2 accurately ripped (confidence 1) [ED39C825] (AR v2)
Track 3 accurately ripped (confidence 1) [35E5EC4D] (AR v2)
Track 4 accurately ripped (confidence 1) [F2BA8621] (AR v2)
Track 5 accurately ripped (confidence 1) [E062180E] (AR v2)
Track 6 accurately ripped (confidence 1) [8D65B63E] (AR v2)
Track 7 accurately ripped (confidence 1) [4EA441D7] (AR v2)
Track 8 accurately ripped (confidence 1) [2D170E15] (AR v2)
Track 9 accurately ripped (confidence 1) [B798D42D] (AR v2)
All tracks accurately ripped
End of status report
==== Log checksum FE5CD8E695001B1817FAC39A5F0A537F1EBB2C35E8AA29995B71B148AFFA1D8A ====

Содержание индексной карты (.CUE)

REM GENRE Classical
REM DATE 2011
REM DISCID 680EBD09
REM COMMENT "ExactAudioCopy v1.0b3"
PERFORMER "Paul Luchkow & Michael Jarvis"
TITLE "Hummel – Sonatas op. 5 – Luchkow & Jarvis"
FILE "Hummel – Sonatas op. 5 – Luchkow & Jarvis.flac" WAVE
TRACK 01 AUDIO
TITLE "Sonata for piano and violin in F major, Op. 5 No. 2 - I. Allegro con spirito"
PERFORMER "Paul Luchkow & Michael Jarvis"
ISRC CAM231100011
INDEX 01 00:00:00
TRACK 02 AUDIO
TITLE "Sonata for piano and violin in F major, Op. 5 No. 2 - II. Andantino con grand' espressione"
PERFORMER "Paul Luchkow & Michael Jarvis"
ISRC CAM231100012
INDEX 00 06:58:21
INDEX 01 07:01:21
TRACK 03 AUDIO
TITLE "Sonata for piano and violin in F major, Op. 5 No. 2 - III. Rondo alla Polacca"
PERFORMER "Paul Luchkow & Michael Jarvis"
ISRC CAM231100013
INDEX 00 11:52:28
INDEX 01 11:53:43
TRACK 04 AUDIO
TITLE "Sonata for piano and viola in E flat major, Op. 5 No. 3 - I. Allegro moderato"
PERFORMER "Paul Luchkow & Michael Jarvis"
ISRC CAM231100014
INDEX 00 16:49:05
INDEX 01 16:54:05
TRACK 05 AUDIO
TITLE "Sonata for piano and viola in E flat major, Op. 5 No. 3 - II. Adagio e cantabile"
PERFORMER "Paul Luchkow & Michael Jarvis"
ISRC CAM231100015
INDEX 00 28:21:64
INDEX 01 28:25:64
TRACK 06 AUDIO
TITLE "Sonata for piano and viola in E flat major, Op. 5 No. 3 - III. Rondo con moto"
PERFORMER "Paul Luchkow & Michael Jarvis"
ISRC CAM231100016
INDEX 00 33:45:40
INDEX 01 33:47:40
TRACK 07 AUDIO
TITLE "Sonata for piano and violin in B flat major, Op. 5 No. 1 - I. Allegro moderato"
PERFORMER "Paul Luchkow & Michael Jarvis"
ISRC CAM231100017
INDEX 00 40:26:67
INDEX 01 40:31:67
TRACK 08 AUDIO
TITLE "Sonata for piano and violin in B flat major, Op. 5 No. 1 - II. Andante con variazioni"
PERFORMER "Paul Luchkow & Michael Jarvis"
ISRC CAM231100018
INDEX 00 49:10:36
INDEX 01 49:13:36
TRACK 09 AUDIO
TITLE "Sonata for piano and violin in B flat major, Op. 5 No. 1 - III. Rondo"
PERFORMER "Paul Luchkow & Michael Jarvis"
ISRC CAM231100019
INDEX 00 55:10:43
INDEX 01 55:12:43



Показать сообщения:    

Текущее время: 08-Дек 14:49

Часовой пояс: UTC + 3


Вы не можете начинать темы
Вы не можете отвечать на сообщения
Вы не можете редактировать свои сообщения
Вы не можете удалять свои сообщения
Вы не можете голосовать в опросах
Вы не можете прикреплять файлы к сообщениям
Вы не можете скачивать файлы