(Classical) Johannes Brahms - Violin Sonatas No.1-3 (Sergey Khachatryan, Lusine Khachatryan) - 2013, FLAC (image+.cue) lossless


 

[Цитировать]

Johannes Brahms- Violin Sonatas No.1-3
(Sergey Khachatryan, Lusine Khachatryan)
Johannes Brahms (1833-1897)
Жанр: Classical
Страна-производитель диска: Austria
Год издания диска: 2013
Издатель (лейбл): Naive
Номер по каталогу: V 5314
Дата записи: 7,8/2012
Аудиокодек: FLAC
Тип рипа: image+.cue
Битрейт аудио: lossless
Продолжительность: 01:15:00
Источник: JVA
Наличие сканов в содержимом раздачи: да
Треклист:
Sonata for Violin and Piano No. 1 in G Major, Op. 78:
01 I. Vivace ma non troppo 11:26
02 II. Adagio 8:56
03 III. Allegro molto moderato 9:37
Sonata for Violin and Piano No. 2 in A Major, Op. 100:
04 I. Allegro amabile 8:56
05 II. Andante tranquillo - Vivace - Andante - Vivace di piu - Andante - Vivace 6:49
06 III. Allegretto grazioso (quasi andante) 6:04
Sonata for Violin and Piano No. 3 in D minor, Op. 108:
07 I. Allegro 9:09
08 II. Adagio 4:49
09 III. Un poco presto e con sentimento 2:57
10 IV. Presto agitato 6:14
Исполнители:
Sergey Khachatryan violin
Lusine Khachatryan piano

Лог создания рипа

Exact Audio Copy V0.99 prebeta 5 from 4. May 2009
Отчёт EAC об извлечении, выполненном 15. августа 2014, 11:32
Brahms / Brahms Sonatas - Sergey & Lusine Khachatryan
Дисковод: ATAPI iHAS124 E Adapter: 0 ID: 0
Режим чтения : Достоверность
Использование точного потока : Да
Отключение кэша аудио : Да
Использование указателей C2 : Нет
Коррекция смещения при чтении : 6
Способность читать области Lead-in и Lead-out : Нет
Заполнение пропущенных сэмплов тишиной : Да
Удаление блоков с тишиной в начале и конце : Нет
При вычислениях CRC использовались нулевые сэмплы : Да
Интерфейс : Встроенный Win32-интерфейс для Win NT/2000
Выходной формат : Пользовательский кодировщик
Выбранный битрейт : 768 kBit/s
Качество : Высокий
Добавление ID3-тэга : Нет
Утилита сжатия : C:\Program Files\Exact Audio Copy\Flac\flac.exe
Дополнительные параметры : -6 -V -T "ARTIST=%a" -T "TITLE=%t" -T "ALBUM=%g" -T "DATE=%y" -T "TRACKNUMBER=%n" -T "GENRE=%m" -T "COMMENT=%e" %s -o %d
TOC извлечённого CD
Трек | Старт | Длительность | Начальный сектор | Конечный сектор
---------------------------------------------------------------------
1 | 0:00.00 | 11:24.72 | 0 | 51371
2 | 11:24.72 | 8:57.40 | 51372 | 91686
3 | 20:22.37 | 9:36.50 | 91687 | 134936
4 | 29:59.12 | 8:54.10 | 134937 | 174996
5 | 38:53.22 | 6:45.51 | 174997 | 205422
6 | 45:38.73 | 6:04.56 | 205423 | 232778
7 | 51:43.54 | 9:01.71 | 232779 | 273424
8 | 60:45.50 | 4:49.37 | 273425 | 295136
9 | 65:35.12 | 2:56.68 | 295137 | 308404
10 | 68:32.05 | 6:13.62 | 308405 | 336441
Характеристики диапазона извлечения и сообщения об ошибках
Выбранный диапазон
Имя файла C:\EAC\Sergey & Lusine Khachatryan - Brahms Sonatas\Sergey & Lusine Khachatryan - Brahms Sonatas.wav
Пиковый уровень 100.0 %
Качество диапазона 100.0 %
CRC копии 46A151A0
Копирование... OK
Ошибок не произошло
AccurateRip: сводка
Трек 1 точность не определена (достоверность 5) [28450A25], AccurateRip вернул [8DFA03AC]
Трек 2 точность не определена (достоверность 5) [D217B10E], AccurateRip вернул [F5B670EF]
Трек 3 точность не определена (достоверность 5) [125BD289], AccurateRip вернул [06A937A1]
Трек 4 точность не определена (достоверность 5) [CD2F5FCD], AccurateRip вернул [5A48585B]
Трек 5 точность не определена (достоверность 5) [0DEDA73B], AccurateRip вернул [1A1F0483]
Трек 6 точность не определена (достоверность 5) [41F97C54], AccurateRip вернул [BD45FF58]
Трек 7 точность не определена (достоверность 5) [181CE487], AccurateRip вернул [D13CD3DA]
Трек 8 точность не определена (достоверность 5) [CDA087BC], AccurateRip вернул [FA82316D]
Трек 9 точность не определена (достоверность 5) [B436B40B], AccurateRip вернул [9ED42BDC]
Трек 10 точность не определена (достоверность 5) [221252BB], AccurateRip вернул [133689B3]
Ни один трек не прошёл проверки на точность
В вашей базе может быть иной вариант штамповки диска
Конец отчёта

Лог проверки качества


Скриншот спектра частот




Показать сообщения:    

Текущее время: 05-Дек 05:29

Часовой пояс: UTC + 3


Вы не можете начинать темы
Вы не можете отвечать на сообщения
Вы не можете редактировать свои сообщения
Вы не можете удалять свои сообщения
Вы не можете голосовать в опросах
Вы не можете прикреплять файлы к сообщениям
Вы не можете скачивать файлы