(Classical) Рутковский – Скрипичная соната и Фортепианное трио / Rutkowski – Violin Sonata & Piano Trio (Pawel Kuklinski, Tadeusz Samerek, Maciej Ganski, Rafal Lewandowski) - 2013, FLAC (image+.cue) lossless


 

[Цитировать]

Рутковский – Скрипичная соната и Фортепианное трио / Rutkowski – Violin Sonata & Piano Trio (Paweł Kukliński, Tadeusz Samerek, Maciej Gański, Rafał Lewandowski)
Жанр: Classical
Страна-производитель диска: ЕС
Год издания диска: 2013
Издатель (лейбл): Acte Préalable
Номер по каталогу: AP0292
Дата записи: май и июнь (1 — 3), март и май (4 — 7) 2013 г., Гданьск.
Аудиокодек: FLAC
Тип рипа: image+.cue
Битрейт аудио: lossless
Продолжительность: 00:54:04
Источник: odeonmusic
Наличие сканов в содержимом раздачи: да
Треклист:
Антоний Винцентий Рутковский (1859 — 1886).
Фортепианное трио g-moll, op. 13 (оконч. 1878).
01. I. Allegro vivace [08:45].
02. II. Allegro [07:57].
03. III. Allegro con moto [07:59].
Соната для фортепиано и скрипки c-moll, op. 5 (1882).
04. I. Allegro molto [09:47].
05. II. Andante con moto [08:52].
06. III. Intermezzo [03:06].
07. IV. Rondo-Finale [07:33].
Исполнители:
Paweł Kukliński (скрипка),
Tadeusz Samerek (виолончель),
Maciej Gański (фортепиано, 1 — 3),
Rafał Lewandowski (фортепиано, 4 — 7).

Лог создания рипа

Exact Audio Copy V1.0 beta 3 from 29. August 2011
EAC extraction logfile from 29. November 2013, 18:58
Various Artists / Antoni Rutkowski - Piano Trio, Violin Sonata - VA
Used drive : TSSTcorpCDDVDW SH-222BB Adapter: 2 ID: 1
Read mode : Secure
Utilize accurate stream : Yes
Defeat audio cache : Yes
Make use of C2 pointers : No
Read offset correction : 6
Overread into Lead-In and Lead-Out : No
Fill up missing offset samples with silence : Yes
Delete leading and trailing silent blocks : No
Null samples used in CRC calculations : Yes
Used interface : Native Win32 interface for Win NT & 2000
Used output format : User Defined Encoder
Selected bitrate : 1024 kBit/s
Quality : High
Add ID3 tag : No
Command line compressor : C:\Program Files\Exact Audio Copy\Flac\flac.exe
Additional command line options : -8 -V -T "TITLE=%title%" -T "ARTIST=%artist%" -T "ALBUMARTIST=%albumartist%" -T "ALBUM=%albumtitle%" -T "DATE=%year%" -T "TRACKNUMBER=%tracknr%" -T "TRACKTOTAL=%numtracks%" -T "GENRE=%genre%" -T "COMMENT=%comment%" -T "PERFORMER=%albuminterpret%" -T "COMPOSER=%composer%" %source% -o %dest%
TOC of the extracted CD
Track | Start | Length | Start sector | End sector
---------------------------------------------------------
1 | 0:00.00 | 8:45.55 | 0 | 39429
2 | 8:45.55 | 7:57.70 | 39430 | 75274
3 | 16:43.50 | 7:59.66 | 75275 | 111265
4 | 24:43.41 | 9:47.20 | 111266 | 155310
5 | 34:30.61 | 8:52.50 | 155311 | 195260
6 | 43:23.36 | 3:06.62 | 195261 | 209272
7 | 46:30.23 | 7:33.69 | 209273 | 243316
Range status and errors
Selected range
Filename G:\Ripped general\[8326] Antoni Rutkowski – Piano Trio, Violin Sonata – VA\Antoni Rutkowski - Piano Trio, Violin Sonata - VA.wav
Peak level 88.7 %
Extraction speed 4.3 X
Range quality 100.0 %
Test CRC E8226029
Copy CRC E8226029
Copy OK
No errors occurred
AccurateRip summary
Track 1 not present in database
Track 2 not present in database
Track 3 not present in database
Track 4 not present in database
Track 5 not present in database
Track 6 not present in database
Track 7 not present in database
None of the tracks are present in the AccurateRip database
End of status report

Содержание индексной карты (.CUE)

REM GENRE Classical
REM DISCID 540CAC07
REM COMMENT "ExactAudioCopy v1.0b3"
PERFORMER "Various Artists"
TITLE "Rutkowski – Piano trio & Violin sonata"
FILE "Rutkowski – Piano trio & Violin sonata.flac" WAVE
TRACK 01 AUDIO
TITLE "Piano Trio in G minor, Op. 13 - I. Allegro vivace"
PERFORMER "Various Artists"
INDEX 01 00:00:00
TRACK 02 AUDIO
TITLE "Piano Trio in G minor, Op. 13 - II. Allegro"
PERFORMER "Various Artists"
INDEX 01 08:45:55
TRACK 03 AUDIO
TITLE "Piano Trio in G minor, Op. 13 - III. Allegro con fuoco"
PERFORMER "Various Artists"
INDEX 01 16:43:50
TRACK 04 AUDIO
TITLE "Violin Sonata in C minor, Op. 5 - I. Allegro molto"
PERFORMER "Various Artists"
INDEX 00 24:38:41
INDEX 01 24:43:41
TRACK 05 AUDIO
TITLE "Violin Sonata in C minor, Op. 5 - II. Andante con moto"
PERFORMER "Various Artists"
INDEX 01 34:30:61
TRACK 06 AUDIO
TITLE "Violin Sonata in C minor, Op. 5 - III. Intermezzo"
PERFORMER "Various Artists"
INDEX 01 43:23:36
TRACK 07 AUDIO
TITLE "Violin Sonata in C minor, Op. 5 - IV. Rondo-Finale"
PERFORMER "Various Artists"
INDEX 01 46:30:23



Показать сообщения:    

Текущее время: 10-Дек 06:02

Часовой пояс: UTC + 3


Вы не можете начинать темы
Вы не можете отвечать на сообщения
Вы не можете редактировать свои сообщения
Вы не можете удалять свои сообщения
Вы не можете голосовать в опросах
Вы не можете прикреплять файлы к сообщениям
Вы не можете скачивать файлы