Комиксы - непобежденные / Комиксы в кино / Comic Books Unbound (Эван Канев / Evan Kanew) [2008, документальный, кинематограф, DVB] MVO (Amedia)


Статистика раздачи [Обновить пиров]
Размер:  1.82 GB   |    Зарегистрирован:  8 месяцев 21 день   |    Скачан:  0 раз

Полного источника не было: Никогда

Личеров:  15  [  0 KB/s  ]   Подробная статистика пиров
 
   
 
 
 

[Цитировать]

Комиксы - непобежденные
Comic Books Unbound- Дата/Год выпуска: 2008
Страна: США
Жанр: документальный, кинематограф
Продолжительность: 00:56:18
Перевод: Профессиональный (многоголосый закадровый)
Доп. инфо о переводе: Amedia
Русские субтитры: нет
Режиссер: Эван Канев / Evan Kanew
Телеканал: Amedia 1В ролях: Сельма Блейр, Джефф Бриджес, Гильермо дель Торро, Ричард Доннер, Роберт Дауни мл., Фрэнк Миллер, Эдвард Нортон, Гвинет Пэлтроу, Рон Перлман
Описание: Вам предлагаются интервью с самыми известными именами в индустрии кино, которые попытаются объяснить феномен успеха экранизаций комиксов.
Доп. информация: DVB-S. Благодарность vitalik-gatilov за информацию о трансляции.

качество: DVB
формат: MKV
Видео: MPEG Video 2, 720x576@1024x576 (16:9), 25 fps, ~4342 kbps avg, 0.419 bit/pixel
Аудио: MPEG Audio 2, 2 ch, 48 kHz, ~192.00 kbps avg

MediaInfo

Общее
Уникальный идентификатор : 189959674166062535355141658187939153154 (0x8EE8E7084A412790815A6E1261AF8502)
Полное имя : E:\My Torrents 2\[apreder]Comic_Books_Unbound(2008)DVB.mkv
Формат : Matroska
Версия формата : Version 2
Размер файла : 1,82 Гбайт
Продолжительность : 56 м.
Режим общего битрейта : Переменный
Общий поток : 4626 Кбит/сек
Дата кодирования : UTC 2014-10-22 13:14:52
Программа кодирования : mkvmerge v7.2.0 ('On Every Street') 64bit built on Sep 13 2014 15:52:10
Библиотека кодирования : libebml v1.3.0 + libmatroska v1.4.1
Видео
Идентификатор : 1
Формат : MPEG Video
Версия формата : Version 2
Профиль формата : Main@Main
Параметр BVOP формата : Нет
Параметр матрицы формата : Выборочная
Format_Settings_PictureStructure : Frame
Идентификатор кодека : V_MPEG2
Идентификатор кодека/Информация : MPEG 1 or 2 Video
Продолжительность : 56 м.
Вид битрейта : Переменный
Битрейт : 4342 Кбит/сек
Максимальный битрейт : 8663 Кбит/сек
Ширина : 720 пикселей
Высота : 576 пикселей
Соотношение сторон : 16:9
Режим частоты кадров : Постоянный
Частота кадров : 25,000 кадров/сек
Стандарт вещания : PAL
Цветовое пространство : YUV
Субдискретизация насыщенности : 4:2:0
Битовая глубина : 8 бит
Тип развёртки : Чересстрочная
Порядок развёртки : Верхнее поле первое
Метод сжатия : С потерями
Бит/(Пиксели*Кадры) : 0.419
Временной код первого кадра : 00:00:00:00
Оригинал временного кода : Group of pictures header
Размер потока : 1,71 Гбайт (94%)
Default : Да
Forced : Нет
Аудио
Идентификатор : 2
Формат : MPEG Audio
Версия формата : Version 1
Профиль формата : Layer 2
Идентификатор кодека : A_MPEG/L2
Идентификатор кодека/Подсказка : MP2
Продолжительность : 56 м.
Вид битрейта : Постоянный
Битрейт : 192 Кбит/сек
Каналы : 2 канала
Частота : 48,0 КГц
Метод сжатия : С потерями
Размер потока : 77,3 Мбайт (4%)
Язык : Russian
Default : Да
Forced : Нет

Скриншоты


Резервные скриншоты


-[1'833]
[teatrix.ru].t19287.torrent 
Торрент: Зарегистрирован [ 2016-03-18 12:50 ] · 080D3C23356D2C4EEB33AD0ECE4CB259D083266D

Скачать .torrent

Скачать

19 KB

Статус: проверено
Скачан: 0 раз
Размер: 1.82 GB
terms.php



Показать сообщения:    

Текущее время: 08-Дек 23:09

Часовой пояс: UTC + 3


Вы не можете начинать темы
Вы не можете отвечать на сообщения
Вы не можете редактировать свои сообщения
Вы не можете удалять свои сообщения
Вы не можете голосовать в опросах
Вы не можете прикреплять файлы к сообщениям
Вы можете скачивать файлы