(ECM New Series, Classical) [WEB] Anja Lechner & François (Francois) Couturier - Moderato Cantabile (Gurdjieff/Гурджиев, Komitas, Mompou, Hartmann/Гартман) - 2014, FLAC (tracks) lossless


 

[Цитировать]

Anja Lechner & François Couturier
Moderato Cantabile
- Жанр: Classical
Год издания диска: 2014
Издатель (лейбл): ECM New Series
Аудиокодек: FLAC
Тип рипа: tracks
Битрейт аудио: lossless
Продолжительность: 00:57:31
Источник: Qobuz
Наличие сканов: Front, Digital Booklet-
01. Sayyid Chant and Dance No. 3 - Hymn No. 7 [Georges I. Gurdjieff] (6:42)
02. Voyage [François Couturier] (5:28)
03. Chinar es [Komitas Vardapet] (6:29)
04. Canción y Danza VI [Federico Mompou] (5:13)
05. Musica Callada XXVIII - Impresiones Intimas I [Federico Mompou] (5:59)
06. Soleil rouge [François Couturier] (3:37)
07. Papillons [François Couturier] (7:27)
08. Hymn No. 8 - Night Procession [Georges I. Gurdjieff] (6:44)
09. No. 11 - Fêtes lointaines No. 3 [Georges I. Gurdjieff, Thomas de Hartmann, Federico Mompou] (4:47)
10. Impresiones Intimas VIII "Secreto" [Federico Mompou] (5:05)
-Исполнители:
Anja Lechner - violoncello
François Couturier - piano
Recorded November 2013-

ОтчётыЛог проверки качества

-----------------------
DON'T MODIFY THIS FILE
-----------------------
PERFORMER: auCDtect Task Manager, ver. 1.6.0 RC1 build 1.6.0.1
Copyright (c) 2008-2010 y-soft. All rights reserved
http://y-soft.org
ANALYZER: auCDtect: CD records authenticity detector, version 0.8.2
Copyright (c) 2004 Oleg Berngardt. All rights reserved.
Copyright (c) 2004 Alexander Djourik. All rights reserved.
FILE: 10. Federico Mompou - Impresiones Intimas VIII 'Secreto'.flac
Size: 17727850 Hash: 81C0D0B8540F398D2183421252BA5791 Accuracy: -m0
Conclusion: CDDA 100%
Signature: D7A460BE26879E26B4EA491884AD32E26979C52C
FILE: 09. Georges Gurdjieff - No. 11 - Fetes lointaines No. 3.flac
Size: 19063925 Hash: E6FF197909D0E2B9E38F801989BF1A44 Accuracy: -m0
Conclusion: CDDA 100%
Signature: BD4C3885522E82D2390911C7CD17F6EE5D642356
FILE: 08. Georges Gurdjieff - Hymn No. 8 - Night Procession.flac
Size: 24020866 Hash: C962CC571338B4CBE940C10CC703FE25 Accuracy: -m0
Conclusion: CDDA 100%
Signature: A9096856264C136E909F837F9D97552D89FF7093
FILE: 07. Francois Couturier - Papillons.flac
Size: 29777172 Hash: 6BFF22C5313CCE4B952F090A35CA6F3C Accuracy: -m0
Conclusion: CDDA 100%
Signature: 6843BF0C9AFAED2A746B809B02CD030C552FFFC8
FILE: 06. Francois Couturier - Soleil rouge.flac
Size: 12611186 Hash: 75C3AFA300FB9F646837FA97807D8ABA Accuracy: -m0
Conclusion: CDDA 100%
Signature: 507FF1BD7BC414A45F429637330E9C5EC5661CF6
FILE: 05. Federico Mompou - Musica Callada XXVIII - Impresiones Intimas I.flac
Size: 22412777 Hash: 115170D086D25E7870F36F380CF27D63 Accuracy: -m0
Conclusion: CDDA 100%
Signature: 14C5E01617AEB6B670DADF2139E01765924FC31C
FILE: 04. Federico Mompou - Cancion y Danza VI.flac
Size: 20337987 Hash: E758B7DB34B5D5C2446BF577C1196318 Accuracy: -m0
Conclusion: CDDA 100%
Signature: F7C2E682E032B6C5E5A25C612190516E8EA4C899
FILE: 03. Komitas Vardapet - Chinar es.flac
Size: 26041428 Hash: A33DF91C8C0C8F765FFA84065EC479CB Accuracy: -m0
Conclusion: CDDA 100%
Signature: B502D9B7260CCC900909D7C811A4C23A079CF130
FILE: 02. Francois Couturier - Voyage.flac
Size: 19709467 Hash: FB8F24543F5C0DE994735248A6A574FB Accuracy: -m0
Conclusion: CDDA 100%
Signature: D858A8B448D0CA6A060B863C0C444F82D0354684
FILE: 01. Georges Gurdjieff - Sayyid Chant and Dance No. 3 - Hymn No. 7.flac
Size: 27878795 Hash: 29E8723EBEFC8357C1CA2B5D1C09A9AE Accuracy: -m0
Conclusion: CDDA 100%
Signature: E5EA0C54E767436240F240C341B1D0D6D742CC98

Динамический диапазон

foobar2000 1.2.2 / Замер динамического диапазона (DR) 1.1.1
Дата отчёта: 2014-10-21 17:28:09
--------------------------------------------------------------------------------
Анализ: Anja Lechner, François Couturier / Moderato cantabile
--------------------------------------------------------------------------------
DR Пики RMS Продолжительность трека
--------------------------------------------------------------------------------
DR13 -2.81 дБ -19.38 дБ 6:42 ?-Sayyid Chant and Dance No. 3 - Hymn No. 7
DR13 -3.10 дБ -23.24 дБ 5:28 ?-Voyage
DR13 -3.40 дБ -21.77 дБ 6:29 ?-Chinar es
DR12 -4.63 дБ -21.86 дБ 5:13 ?-Canción y Danza VI
DR14 -2.83 дБ -21.75 дБ 5:59 ?-Musica Callada XXVIII - Impresiones Intimas I
DR14 -2.30 дБ -21.23 дБ 3:37 ?-Soleil rouge
DR14 -0.75 дБ -20.07 дБ 7:27 ?-Papillons
DR14 -4.86 дБ -24.13 дБ 6:44 ?-Hymn No. 8 - Night Procession
DR14 -2.32 дБ -20.86 дБ 4:47 ?-No. 11 - Fêtes lointaines No. 3
DR14 -5.70 дБ -24.61 дБ 5:05 ?-Impresiones Intimas VIII "Secreto"
--------------------------------------------------------------------------------
Количество треков: 10
Реальные значения DR: DR13
Частота: 44100 Гц
Каналов: 2
Разрядность: 16
Битрейт: 463 кбит/с
Кодек: FLAC
================================================================================

Скриншот спектра частот

Доп. информация

Релиз полностью готов к воспроизведению в аудиоплеере (я ориентировался на foobar2000)При скачивании, если необходимо, переименуйте папку, в которой будет находиться альбомБольшая просьба к скачавшим поддерживать раздачу! Помогайте другим, ведь вам тоже может понадобиться помощь!Не забываем говорить "Спасибо"!Комментарии приветствуются!



Показать сообщения:    

Текущее время: 05-Дек 21:34

Часовой пояс: UTC + 3


Вы не можете начинать темы
Вы не можете отвечать на сообщения
Вы не можете редактировать свои сообщения
Вы не можете удалять свои сообщения
Вы не можете голосовать в опросах
Вы не можете прикреплять файлы к сообщениям
Вы не можете скачивать файлы