Острова. Кир Булычёв (Денис Чуваев) [2014, Документальный, биография, IPTVRip]


Статистика раздачи [Обновить пиров]
Размер:  575 MB   |    Зарегистрирован:  8 месяцев 15 дней   |    Скачан:  0 раз

Полного источника не было: Никогда

 
   
 
 
 

[Цитировать]

Острова:
Кир Булычёв
Дата/Год выпуска: 2014
Страна: Россия
Жанр: Документальный, биография
Продолжительность: 00:38:45
Перевод: Не требуется
Русские субтитры: нет
Режиссер: Денис Чуваев
Сценарий: Мария Соколова
Телеканал: "Культура"
Описание:
"Время - бесконечный поток. Если человек попадает в этот поток, поток его несет. И может перенести его из одного времени в другое". Фильм о писателе-фантасте, книги которого помогают не бояться времени. Об Игоре Можейко (Кире Булычёве) вспоминают: Евгений Глущенко, Александр Майоров, Наталья Орлова, Игорь Ясулович, Николай Викторов.
Сэмпл
Раздачи цикла "Острова"
качество: IPTVRip
формат: AVI
Видео: 720x544 (1.32:1), 25 fps, XviD build 65 ~1873 kbps avg, 0.19 bit/pixel
Аудио: 48 kHz, MPEG Layer 3, 2 ch, ~192.00 kbps avg

MediaInfo

General
Complete name : D:\#Раздача\Острова. Кир Булычёв (2014).XviD.IPTVRip.by.Черник.avi
Format : AVI
Format/Info : Audio Video Interleave
File size : 575 MiB
Duration : 38mn 44s
Overall bit rate : 2 076 Kbps
Writing application : VirtualDubMod 1.5.10.3 | www.virtualdub-fr.org || (build 2550/release)
Writing library : VirtualDubMod build 2550/release
Video
ID : 0
Format : MPEG-4 Visual
Format profile : Advanced Simple@L5
Format settings, BVOP : 1
Format settings, QPel : No
Format settings, GMC : No warppoints
Format settings, Matrix : Default (MPEG)
Codec ID : XVID
Codec ID/Hint : XviD
Duration : 38mn 44s
Bit rate : 1 874 Kbps
Width : 720 pixels
Height : 544 pixels
Display aspect ratio : 4:3
Frame rate : 25.000 fps
Color space : YUV
Chroma subsampling : 4:2:0
Bit depth : 8 bits
Scan type : Progressive
Compression mode : Lossy
Bits/(Pixel*Frame) : 0.191
Stream size : 519 MiB (90%)
Writing library : XviD 65
Audio
ID : 1
Format : MPEG Audio
Format version : Version 1
Format profile : Layer 3
Codec ID : 55
Codec ID/Hint : MP3
Duration : 38mn 44s
Bit rate mode : Constant
Bit rate : 192 Kbps
Channel(s) : 2 channels
Sampling rate : 48.0 KHz
Compression mode : Lossy
Stream size : 53.2 MiB (9%)
Alignment : Aligned on interleaves
Interleave, duration : 40 ms (1.00 video frame)
Interleave, preload duration : 504 ms
Writing library : LAME3.99r
Encoding settings : -m s -V 4 -q 2 -lowpass 18.6 -b 192

Скриншоты

[teatrix.ru].t19289.torrent 
Торрент: Зарегистрирован [ 2016-03-18 12:37 ] · 0F4A444D22805A9AAF0098A0AC3B4B56CA509BC2

Скачать .torrent

Скачать

12 KB

Статус: проверено
Скачан: 0 раз
Размер: 575 MB
terms.php



Быстрый ответ

Имя:

      
Для отправки сообщений необходимо включить JavaScript
Показать сообщения:    

Текущее время: 02-Дек 21:07

Часовой пояс: UTC + 3


Вы можете начинать темы
Вы можете отвечать на сообщения
Вы не можете редактировать свои сообщения
Вы не можете удалять свои сообщения
Вы не можете голосовать в опросах
Вы не можете прикреплять файлы к сообщениям
Вы можете скачивать файлы