Franck II Louise - Recital a 40 (Mourad Merzouki) [2014, modern Dance, WEBRip]


 

[Цитировать]

Recital a 40
Год выпуска: 2014
Лейбл: Les Hivernales
Жанр: modern dance
Продолжительность: 00:52:15
Музыка: Franck II Louise
Режиссер/Хореограф: Мурад Мерзуки / Mourad Merzouki
Исполнители:
Yann Abidi, Rémi Autechaud, Kareem Beddaoudia, Kader Belmoktar, Mohamed Benghali, Guillaume Chan Ton, Aurélien Chareyron, Habiba Chergui, Mélissa Cirillo, Sabri Colin, Anaïs Couquet, Sandra De Jesus, Aurélien Desobry, Karim Felouki, Christophe Gellon, Raouf Ghouila, Jean-Sébastien Godefroy-Martin, Najib Guerfi, Rachid Hamchaoui, Zoro Henchiri, Sayaka Hori, Omar Kechiouche, Sofiane Kinzi, Mehdi Meziane, Jaouad M’Harrak, Mourad Merzouki, Soraya Mohamed, Cécilia N’Guyen, Mamy Rafidy, Fanny Riou, David Rodrigues, Mohamed Rouabah, Chaouki Saïd, Hafid Sour, Steven Valade, Clarisse Veaux N'Gom, Teddy Verardo, Moncef Zebiri, Sarah Zimmermann, Giulia Zingariello
Описание:
Il est aujourd’hui à la direction du Centre chorégraphique national de Créteil et du Centre chorégraphique Pôle Pik de Bron. Créée en 1998 pour six danseurs, Récital à 40, après une tournée mondiale et 500 représentations, est reconnue comme une oeuvre marquante dans l’histoire de la danse hip-hop. Dans cette nouvelle version, ce ne sont plus six mais quarante danseurs qui dévoilent cette alchimie spectaculaire entre différentes écritures. Mourad Merzouki crée l’événement en réunissant quatre générations de danseurs sur scène.
Доп. информация: Festival Les Hivernales 20 Février 2014
Качество видео: WEBRip
Формат/Контейнер: MKV
Видео кодек: H.264
Аудио кодек: AC3
Видео поток: Video: MPEG4 Video (H264) 1280x544 30.00fps 4 700 Kbps
Аудио поток: Audio: Dolby AC3 48000Hz stereo 256 Kbps

Mediainfo

Format : Matroska
File size : 1.81 GiB
Duration : 52mn 15s
Overall bit rate : 4 960 Kbps
Encoded date : UTC 2014-07-06 12:45:46
Writing application : mkvmerge v2.4.2 ('Oh My God') built on Jan 18 2009 17:30:28
Writing library : libebml v0.7.7 + libmatroska v0.8.1
Video
ID : 1
Format : AVC
Format/Info : Advanced Video Codec
Format profile : High@L4.1
Format settings, CABAC : Yes
Format settings, ReFrames : 3 frames
Muxing mode : Container profile=Unknown@4.1
Codec ID : V_MPEG4/ISO/AVC
Duration : 52mn 15s
Bit rate : 4 700 Kbps
Width : 1 280 pixels
Height : 544 pixels
Display aspect ratio : 2.35:1
Frame rate mode : Variable
Frame rate : 30.000 fps
Color space : YUV
Chroma subsampling : 4:2:0
Bit depth : 8 bits
Scan type : Progressive
Bits/(Pixel*Frame) : 0.225
Stream size : 1.68 GiB (93%)
Writing library : x264 core 116 r2019M 9cc407d
Encoding settings : cabac=1 / ref=3 / deblock=1:-1:-1 / analyse=0x3:0x133 / me=umh / subme=9 / psy=1 / psy_rd=1.00:0.15 / mixed_ref=1 / me_range=16 / chroma_me=1 / trellis=1 / 8x8dct=1 / cqm=0 / deadzone=21,11 / fast_pskip=1 / chroma_qp_offset=-3 / threads=12 / sliced_threads=0 / nr=0 / decimate=1 / interlaced=0 / bluray_compat=0 / constrained_intra=0 / bframes=3 / b_pyramid=1 / b_adapt=2 / b_bias=0 / direct=3 / weightb=1 / open_gop=0 / weightp=2 / keyint=300 / keyint_min=30 / scenecut=40 / intra_refresh=0 / rc_lookahead=40 / rc=2pass / mbtree=1 / bitrate=4700 / ratetol=1.0 / qcomp=0.60 / qpmin=10 / qpmax=51 / qpstep=4 / cplxblur=20.0 / qblur=0.5 / ip_ratio=1.40 / aq=1:1.00
Language : English
Audio
ID : 2
Format : AC-3
Format/Info : Audio Coding 3
Mode extension : CM (complete main)
Codec ID : A_AC3
Duration : 52mn 15s
Bit rate mode : Constant
Bit rate : 256 Kbps
Channel(s) : 2 channels
Channel positions : Front: L R
Sampling rate : 48.0 KHz
Bit depth : 16 bits
Stream size : 95.7 MiB (5%)
Language : English

Скриншоты




Показать сообщения:    

Текущее время: 10-Дек 11:55

Часовой пояс: UTC + 3


Вы не можете начинать темы
Вы не можете отвечать на сообщения
Вы не можете редактировать свои сообщения
Вы не можете удалять свои сообщения
Вы не можете голосовать в опросах
Вы не можете прикреплять файлы к сообщениям
Вы не можете скачивать файлы