(Classical) C.F.E. Horneman & Asger Hamerik - String Quartets - Arild String Quartet - 2013, FLAC (image+.cue) lossless


 

[Цитировать]

C.F.E. Horneman & Asger Hamerik - String Quartets - Arild String Quartet
Жанр: Classical
Страна-производитель диска: Denmark
Год издания диска: 2013
Издатель (лейбл): Dacapo
Номер по каталогу: 8.226097
Дата записи: 2011
Аудиокодек: FLAC
Тип рипа: image+.cue
Битрейт аудио: lossless
Продолжительность: 52:55
Источник: собственный рип
Наличие сканов в содержимом раздачи: да
Треклист:
C.F.E. Horneman (1840-1906)
[1]-[4] String Quartet No.2 in D major (1861)
Asger Hamerik (1843-1923)
[5] Quartetto (1859)
C.F.E. Horneman
[6]-[9] String Quartet No.1 in G minor (1859)
Исполнители:
Arild String Quartet
Tobias Durholm 1st violin
Anna Zelianodjevo 2nd violin
Rafael Altino viola
Ingemar Brantelid cello

Лог создания рипа

Exact Audio Copy V1.0 beta 3 from 29. August 2011
EAC extraction logfile from 2. August 2014, 0:54
Arild String Quartet / C.F.E. Horneman, Asger Hamerik - String Quartets
Used drive : HL-DT-STDVDRAM GU70N Adapter: 0 ID: 0
Read mode : Secure
Utilize accurate stream : Yes
Defeat audio cache : Yes
Make use of C2 pointers : No
Read offset correction : 48
Overread into Lead-In and Lead-Out : No
Fill up missing offset samples with silence : Yes
Delete leading and trailing silent blocks : No
Null samples used in CRC calculations : Yes
Used interface : Native Win32 interface for Win NT & 2000
Used output format : User Defined Encoder
Selected bitrate : 128 kBit/s
Quality : High
Add ID3 tag : No
Command line compressor : C:\Program Files (x86)\Exact Audio Copy\Flac\flac.exe
Additional command line options : -V -8 -T "Date=%year%" -T "Genre=%genre%" %source%
TOC of the extracted CD
Track | Start | Length | Start sector | End sector
---------------------------------------------------------
1 | 0:00.00 | 5:39.21 | 0 | 25445
2 | 5:39.21 | 8:06.62 | 25446 | 61957
3 | 13:46.08 | 2:39.67 | 61958 | 73949
4 | 16:26.00 | 5:10.38 | 73950 | 97237
5 | 21:36.38 | 6:16.21 | 97238 | 125458
6 | 27:52.59 | 7:25.30 | 125459 | 158863
7 | 35:18.14 | 7:25.64 | 158864 | 192302
8 | 42:44.03 | 4:34.12 | 192303 | 212864
9 | 47:18.15 | 5:36.72 | 212865 | 238136
Range status and errors
Selected range
Filename C:\temp\8.226097 - C.F.E. Horneman, Asger Hamerik - String Quartets\C.F.E. Horneman, Asger Hamerik - String Quartets.wav
Peak level 100.0 %
Extraction speed 5.0 X
Range quality 100.0 %
Test CRC 587766CE
Copy CRC 587766CE
Copy OK
No errors occurred
AccurateRip summary
Track 1 not present in database
Track 2 not present in database
Track 3 not present in database
Track 4 not present in database
Track 5 not present in database
Track 6 not present in database
Track 7 not present in database
Track 8 not present in database
Track 9 not present in database
None of the tracks are present in the AccurateRip database
End of status report
==== Log checksum DD4118BB5B4848A08F191762A84CC323E51E6AA9D2C99927EBCB3F01BD704B88 ====



Показать сообщения:    

Текущее время: 09-Дек 06:58

Часовой пояс: UTC + 3


Вы не можете начинать темы
Вы не можете отвечать на сообщения
Вы не можете редактировать свои сообщения
Вы не можете удалять свои сообщения
Вы не можете голосовать в опросах
Вы не можете прикреплять файлы к сообщениям
Вы не можете скачивать файлы