Вечные темы. Разговор с Александром Пятигорским (4 серии) [Культура 24.10.2014] (Улдис Тиронс) [2014 г., Документальный сериал, SATRip]


Статистика раздачи [Обновить пиров]
Размер:  1.51 GB   |    Зарегистрирован:  8 месяцев 22 дня   |    Скачан:  0 раз

Полного источника не было: Никогда

Личеров:  19  [  0 KB/s  ]   Подробная статистика пиров
 
   
 
 
 

[Цитировать]

ВЕЧНЫЕ ТЕМЫ. "Разговор с Александром Пятигорским"
Премьера на телеканале "Культура"
"Разговор с Александром Пятигорским" из цикла "Вечные темы", посвященного памяти выдающегося мыслителя и философа, пять лет назад ушедшего из жизни.
Год выпуска: 2014 г
Страна: Россия
Жанр: Документальный сериал
Продолжительность: по ~26 мин.
Автор и режиссер: Улдис Тиронс
Перевод: Не требуется
Русские субтитры: нет
Производство: ГТРК "Культура"
(Материалы студии "Локомотив", Рига)
Описание: "Больше всего в жизни я люблю возможность и реальность слушания и разговора", - признавался Александр Пятигорский, выдающийся философ, востоковед, филолог и писатель. Фильм режиссера Улдиса Тиронса дает возможность присоединиться к этому разговору, в котором свободно соединяются воспоминания и размышления об ушедших друзьях-философах, М.К. Мамардашвили и Ю.М. Лотмане, о буддизме, индуизме и йоге, об отношении философии к жизни и смерти, о том, что значит философствовать, и как становятся философами. Благодаря чувству юмора и артистическому обаянию Пятигорский делает эти сложные проблемы близкими и понятными каждому, кого волнуют "вечные темы".

Релиз группы:
Качество: SATRip
Формат: AVI
Видео: 720x400 (1.80:1), 25 fps, XviD ~1869 kbps, 0.14 bit/pixel
Аудио: 48 kHz, MPEG Layer 3, 2 ch, ~128 kbps avg

MediaInfo:

Общее
Полное имя : D:\Torrents\VECHNYE_TEMY-Aleksandr_Pjatigorskij_(Kul'tura)_[rutracker.org]\21.10.2014_Aleksandr_Pjatigorskij-1.avi
Формат : AVI
Формат/Информация : Audio Video Interleave
Размер файла : 371 Мбайт
Продолжительность : 25 м.
Общий поток : 2017 Кбит/сек
Программа кодирования : VirtualDubMod 1.6.0.0 SURROUND (build 2560/release)
Библиотека кодирования : VirtualDubMod build 2560/release
Видео
Идентификатор : 0
Формат : MPEG-4 Visual
Профиль формата : Advanced Simple@L5
Параметр BVOP формата : 2
Параметр QPel формата : Нет
Параметр GMC формата : Без точки перехода
Параметр матрицы формата : Default (MPEG)
Идентификатор кодека : XVID
Идентификатор кодека/Подсказка : XviD
Продолжительность : 25 м.
Битрейт : 1869 Кбит/сек
Ширина : 720 пикселей
Высота : 400 пикселей
Соотношение сторон : 5:4
Соотношение сторон в оригинале : 16:9
Частота кадров : 50,000 кадров/сек
Цветовое пространство : YUV
Субдискретизация насыщенности : 4:2:0
Битовая глубина : 8 бит
Тип развёртки : Прогрессивная
Метод сжатия : С потерями
Бит/(Пиксели*Кадры) : 0.130
Размер потока : 344 Мбайт (93%)
Библиотека кодирования : XviD 1.2.1 (UTC 2008-12-04)
Аудио
Идентификатор : 1
Формат : MPEG Audio
Версия формата : Version 1
Профиль формата : Layer 3
Режим : Joint stereo
Расширение режима : MS Stereo
Идентификатор кодека : 55
Идентификатор кодека/Подсказка : MP3
Продолжительность : 25 м.
Вид битрейта : Постоянный
Битрейт : 128 Кбит/сек
Каналы : 2 канала
Частота : 48,0 КГц
Метод сжатия : С потерями
Размер потока : 23,6 Мбайт (6%)
Выравнивание : Разделение по промежуткам
Продолжительность промежутка : 20 мс. (1,00 видеокадр)
Время предзагрузки промежутка : 500 мс.
Библиотека кодирования : LAME3.99r
Настройки программы : -m j -V 4 -q 3 -lowpass 17 -b 128

Скриншоты (превью, увеличение по клику):

Список серий (частей):

Часть 1-я. (эфир_21.10.2014):
...
Имя файла: 21.10.2014_Aleksandr_Pjatigorskij-1_zam.avi
Заменил файл с лучшим звуком.
Часть 2-я. (эфир_22.10.2014):
...
Имя файла: 22.10.2014_Aleksandr_Pjatigorskij-2.avi
Часть 3-я. (эфир_23.10.2014):
...
Имя файла: 23.10.2014_Aleksandr_Pjatigorskij-3.avi
Часть 4-я. (эфир_24.10.2014):
...
Имя файла: 24.10.2014_Aleksandr_Pjatigorskij-4.avi
Добавил: Часть 4-я. (эфир_24.10.2014). Пожалуйста, обновите торрент-файл.
На раздаче по возможности, ~20 Mb/s. > [Что от меня зависит, сделал. Остальное зависит от Вас, трекера и наших провайдеров.]
[teatrix.ru].t19297.torrent 
Торрент: Зарегистрирован [ 2016-03-18 12:50 ] · 68B01B070C61FE25E0A9267387A08C5B112C0C13

Скачать .torrent

Скачать

16 KB

Статус: проверено
Скачан: 0 раз
Размер: 1.51 GB
terms.php



Быстрый ответ

Имя:

      
Для отправки сообщений необходимо включить JavaScript
Показать сообщения:    

Текущее время: 09-Дек 22:24

Часовой пояс: UTC + 3


Вы можете начинать темы
Вы можете отвечать на сообщения
Вы не можете редактировать свои сообщения
Вы не можете удалять свои сообщения
Вы не можете голосовать в опросах
Вы не можете прикреплять файлы к сообщениям
Вы можете скачивать файлы