(Classical, contemporary) John Adams - Shaker Loops; The Wound-Dresser; Short Ride in a Fast Machine - Nathan Gunn, Bournemouth Symphony Orchestra, Marin Alsop - 2004, FLAC (image+.cue) lossless


 

[Цитировать]

John Adams - Shaker Loops; The Wound-Dresser; Short Ride in a Fast Machine - Nathan Gunn, Bournemouth Symphony Orchestra, Marin Alsop
Жанр: Classical, contemporary
Год издания диска: 2004
Издатель (лейбл): Naxos
Номер по каталогу: 8.559031
Дата записи: 2003
Аудиокодек: FLAC
Тип рипа: image+.cue
Битрейт аудио: lossless
Продолжительность: 58:20
Источник: собственный рип
Наличие сканов в содержимом раздачи: да
Треклист:
John Adams (b.1947)
[1] Short Ride in a Fast Machine (1986)
[2] The Wound-Dresser (1988)*
Ferruccio Busoni (1866-1924)
[3] Berceuse élégiaque (arr. Adams, 1991)
John Adams
[4]-[7] Shaker Loops (1978, rev. 1983)
Исполнители:
Nathan Gunn baritone*
Bournemouth Symphony Orchestra
Marin Alsop

Лог создания рипа

Exact Audio Copy V1.0 beta 3 from 29. August 2011
EAC extraction logfile from 12. October 2014, 12:04
Bournemouth Symphony Orchestra, Marin Alsop / Adams - Shaker Loops; The Wound-Dresser
Used drive : HL-DT-STDVDRAM GU70N Adapter: 0 ID: 0
Read mode : Secure
Utilize accurate stream : Yes
Defeat audio cache : Yes
Make use of C2 pointers : No
Read offset correction : 48
Overread into Lead-In and Lead-Out : No
Fill up missing offset samples with silence : Yes
Delete leading and trailing silent blocks : No
Null samples used in CRC calculations : Yes
Used interface : Native Win32 interface for Win NT & 2000
Used output format : User Defined Encoder
Selected bitrate : 128 kBit/s
Quality : High
Add ID3 tag : No
Command line compressor : C:\Program Files (x86)\Exact Audio Copy\Flac\flac.exe
Additional command line options : -V -8 -T "Date=%year%" -T "Genre=%genre%" %source%
TOC of the extracted CD
Track | Start | Length | Start sector | End sector
---------------------------------------------------------
1 | 0:00.00 | 4:14.30 | 0 | 19079
2 | 4:14.30 | 19:11.05 | 19080 | 105409
3 | 23:25.35 | 9:30.27 | 105410 | 148186
4 | 32:55.62 | 8:27.65 | 148187 | 186276
5 | 41:23.52 | 5:31.60 | 186277 | 211161
6 | 46:55.37 | 7:13.20 | 211162 | 243656
7 | 54:08.57 | 4:09.28 | 243657 | 262359
Range status and errors
Selected range
Filename C:\temp\Naxos_8.559031 - Adams - Shaker Loops; The Wound-Dresser\Adams - Shaker Loops; The Wound-Dresser.wav
Peak level 99.9 %
Extraction speed 5.2 X
Range quality 100.0 %
Test CRC 6A065803
Copy CRC 6A065803
Copy OK
No errors occurred
AccurateRip summary
Track 1 accurately ripped (confidence 20) [5885E2B6] (AR v2)
Track 2 accurately ripped (confidence 19) [67CDE183] (AR v2)
Track 3 accurately ripped (confidence 19) [988E6D5F] (AR v2)
Track 4 accurately ripped (confidence 19) [585C45EE] (AR v2)
Track 5 accurately ripped (confidence 19) [121A0F05] (AR v2)
Track 6 accurately ripped (confidence 19) [9C569A55] (AR v2)
Track 7 accurately ripped (confidence 18) [DB8C5CFC] (AR v2)
All tracks accurately ripped
End of status report
==== Log checksum 5AD0406D59CD4B9BF02034E591262756EAB976ED0A2641374A6F99B959871013 ====



Показать сообщения:    

Текущее время: 08-Дек 01:19

Часовой пояс: UTC + 3


Вы не можете начинать темы
Вы не можете отвечать на сообщения
Вы не можете редактировать свои сообщения
Вы не можете удалять свои сообщения
Вы не можете голосовать в опросах
Вы не можете прикреплять файлы к сообщениям
Вы не можете скачивать файлы