Иосиф Сталин. Как стать вождём (Андрей Симонов) [2014, Документальный, SATRip]


Статистика раздачи [Обновить пиров]
Размер:  447 MB   |    Зарегистрирован:  10 месяцев 3 дня   |    Скачан:  0 раз

Полного источника не было: Никогда

 
   
 
 
 

[Цитировать]

Иосиф Сталин. Как стать вождём
Дата/Год выпуска: 2014
Страна: Россия
Жанр: Документальный
Продолжительность: 00:38:11
Перевод: Не требуется
Режиссер: Андрей Симонов
Телеканал: ТВЦ
Описание: Его родители молились о том, чтобы мальчик остался в живых. Его мама мечтала, чтобы сын стал священником. Семинарию он так и не окончил. Зато превратился из Сосо Джугашвили в великого товарища Сталина. Как сын бедного сапожника, грузин из маленького горного селения смог стать главой огромной державы и правил железной рукой почти тридцать лет?
качество: SATRip
формат: AVI
Видео: XviD, 704x400 (1.76:1), 25 fps, XviD build 50 ~1499 kbps avg, 0.21 bit/pixel
Аудио: MP3, 48 kHz, MPEG Layer 3, 2 ch, ~128.00 kbps avg

MediaInfo

Формат                                   : MPEG-4 Visual
Профиль формата : Advanced Simple@L5
Параметр BVOP формата : 2
Параметр QPel формата : Нет
Параметр GMC формата : Без точки перехода
Параметр матрицы формата : Default (MPEG)
Идентификатор кодека : XVID
Идентификатор кодека/Подсказка : XviD
Продолжительность : 38 м.
Битрейт : 1500 Кбит/сек
Ширина : 704 пикселя
Высота : 400 пикселей
Соотношение сторон : 16:9
Частота кадров : 25,000 кадров/сек
Цветовое пространство : YUV
Субдискретизация насыщенности : 4:2:0
Битовая глубина : 8 бит
Тип развёртки : Прогрессивная
Метод сжатия : С потерями
Бит/(Пиксели*Кадры) : 0.213
Размер потока : 410 Мбайт (92%)
Библиотека кодирования : XviD 1.2.1 (UTC 2008-12-04)
Аудио
Идентификатор : 1
Формат : MPEG Audio
Версия формата : Version 1
Профиль формата : Layer 3
Идентификатор кодека : 55
Идентификатор кодека/Подсказка : MP3
Продолжительность : 38 м.
Вид битрейта : Постоянный
Битрейт : 128 Кбит/сек
Каналы : 2 канала
Частота : 48,0 КГц
Метод сжатия : С потерями
Размер потока : 35,0 Мбайт (8%)
Выравнивание : Соединение по промежуткам
Продолжительность промежутка : 40 мс. (1,00 видеокадр)
Время предзагрузки промежутка : 504 мс.
Библиотека кодирования : LAME3.99r
Настройки программы : -m s -V 4 -q 2 -lowpass 17 -b 128

Скриншоты

[teatrix.ru].t19300.torrent 
Торрент: Зарегистрирован [ 2016-03-18 12:36 ] · 4894B7538FEBDFA7F21EB2F551DB7B4D0B2BF3E7

Скачать .torrent

Скачать

18 KB

Статус: проверено
Скачан: 0 раз
Размер: 447 MB
terms.php



Быстрый ответ

Имя:

      
Для отправки сообщений необходимо включить JavaScript
Показать сообщения:    

Текущее время: 22-Янв 04:45

Часовой пояс: UTC + 3


Вы можете начинать темы
Вы можете отвечать на сообщения
Вы не можете редактировать свои сообщения
Вы не можете удалять свои сообщения
Вы не можете голосовать в опросах
Вы не можете прикреплять файлы к сообщениям
Вы можете скачивать файлы