(Opera) Wagner - Die Meistersinger von Nurnberg (Prohaska, Greindl, Lorenz, Muller - Bayreuth Festival Orchestra, Furtwangler) - 2000, APE (image+.cue) lossless


 

[Цитировать]

Richard Wagner - Die Meistersinger von Nürnberg
Жанр: Opera
Страна-производитель диска: USA
Год издания диска: 2000
Издатель (лейбл): Opera D'Oro
Номер по каталогу: OPD-1237
Дата записи: 1943
Аудиокодек: APE
Тип рипа: image+.cue
Битрейт аудио: lossless
Продолжительность: 70'03+61'16+48'45+62'06
Источник: собственный рип
Наличие сканов в содержимом раздачи: да
Треклист:

CD1

1. Prelude to Act 1
2. Da zu dir der Heiland kam
3. Der Singer Meister Schlag
4. Der Meister Ton' und Weisen
5. Damit, Herr Ritter, ist's so bewandt!
6. Aller End' ist doch David der Allergescheit'st'!
7. Seid meiner Treue wohl versehen
8. Gott gruss euch, Meister!
9. das schone Fest, Johannistag
10. Vielleicht schon ginget ihr zu weit
11. Dacht' ich mir's doch!
12. Am stillen Herd in Winterzeit
13. Nun, Meister, wenn's gefallt
14. Fanget an!
15. Seid ihr nun fertig?
16. Halt! Meister! Nicht so geeilt!

CD2

1. Johannistag! Johannistag!
2. Lass seh'n, ob Meister Sachs zu Haus?
3. Zeig her! - 's ist gut
4. Was duftet doch der Flieder
5. Gut'n Abend, Meister!
6. Hilf Gott! Wo bliebst du nur so spat?
7. Da ist er!
8. Geliebter, spare den Zorn!
9. Uble Dinge, die ich da merk'
10. Tu's nicht! Doch horch!
11. Jerum! Jerum!
12. Das Fenster geht auf
13. Den Tag seh' ich erscheinen

CD3

1. Prelude to Act Three
2. Gleich Meister! Hier!
3. Am Jordan Sankt Johannes stand
4. Wahn! Wahn! Uberall wahn!
5. Gruss Gott, mein Junker!
6. Mein Freund! In holder Jugendreit
7. Morgendlich leuchtend in rosigem Schein
8. Ein Webelied! Von Sachs? - ist's wahr?

CD4

1. Das Gedicht? Hier liess ich's
2. Sieh, Evchen!
3. Hat man mit dem Schuhwerk nicht seine Not!
4. Sankt Crispin, lobet ihn!
5. Ihr tanzt? Was werden die Meister sagen?
6. Silentium! Silentium!... Wach auf, es nahet gen den Tag
7. Euch macht ihr's leicht, mir macht ihr's schwer
8. Nun denn, wenn's Meistern und Volk believt
9. Morgen ich leuchte in rosigem Schein
10. Das Lied, furwahr, ist nicht von mir
11. Morgendlich leuchtend im rosigen Schein
12. Verachtet mir die Meister nicht
Исполнители:
Richard Wagner - Die Meistersinger von Nürnberg
Hans Sachs - Jaro Prohaska
Vei Pogner - Josef Greindl
Walter von Solzing - Max Lorenz
Eva - Maria Müller
David - Erich Zimmermann
Sixtus Beckmesser - Eugen Fuchs
Kunz Vogelsang - Benno Arnold
Konrad Nagtigall - Helmut Fehn
Fritz Kothner - Fritz Krenn
Balthasar Zorn - Gerhard Witting
Ulrich Eisslinger - Gustaf Röding
Augustin Moser - Karl Krollmann
Hermann Ortel - Herbert Gosebruch
Bayreuth Festival Chorus
Bayreuth Festival Orchestra
Wilhelm Furtwängler

Лог создания рипа

CD1

Exact Audio Copy V1.0 beta 3 from 29. August 2011
EAC extraction logfile from 10. November 2014, 12:46
Wagner / Die Meistersinger von Nürnberg, Furtwängler CD1
Used drive : TSSTcorpCDDVDW SE-208AB Adapter: 1 ID: 0
Read mode : Secure
Utilize accurate stream : Yes
Defeat audio cache : Yes
Make use of C2 pointers : No
Read offset correction : 6
Overread into Lead-In and Lead-Out : No
Fill up missing offset samples with silence : Yes
Delete leading and trailing silent blocks : No
Null samples used in CRC calculations : Yes
Used interface : Native Win32 interface for Win NT & 2000
Used output format : Monkey's Audio Lossless Encoder
Selected bitrate : High Lossless Compression
Quality : High
Add ID3 tag : Yes
Command line compressor : C:\Program Files (x86)\Exact Audio Copy\MAC\MAC.exe
TOC of the extracted CD
Track | Start | Length | Start sector | End sector
---------------------------------------------------------
1 | 0:00.00 | 9:00.65 | 0 | 40564
2 | 9:00.65 | 3:32.13 | 40565 | 56477
3 | 12:33.03 | 3:00.69 | 56478 | 70046
4 | 15:33.72 | 5:23.20 | 70047 | 94291
5 | 20:57.17 | 1:29.40 | 94292 | 101006
6 | 22:26.57 | 3:05.56 | 101007 | 114937
7 | 25:32.38 | 4:01.20 | 114938 | 133032
8 | 29:33.58 | 3:00.43 | 133033 | 146575
9 | 32:34.26 | 6:50.44 | 146576 | 177369
10 | 39:24.70 | 5:09.27 | 177370 | 200571
11 | 44:34.22 | 2:29.74 | 200572 | 211820
12 | 47:04.21 | 5:19.17 | 211821 | 235762
13 | 52:23.38 | 5:14.00 | 235763 | 259312
14 | 57:37.38 | 3:15.55 | 259313 | 273992
15 | 60:53.18 | 2:13.03 | 273993 | 283970
16 | 63:06.21 | 6:57.02 | 283971 | 315247
Range status and errors
Selected range
Filename D:\EAC\Wagner - Die Meistersinger von Nürnberg, Furtwängler CD1.wav
Peak level 95.6 %
Extraction speed 4.9 X
Range quality 100.0 %
Test CRC 646F3934
Copy CRC 646F3934
Copy OK
No errors occurred
AccurateRip summary
Track 1 accurately ripped (confidence 2) [B6F39F16] (AR v1)
Track 2 accurately ripped (confidence 2) [2F4C3ED4] (AR v1)
Track 3 accurately ripped (confidence 2) [C43537D8] (AR v1)
Track 4 accurately ripped (confidence 2) [8C6B2770] (AR v1)
Track 5 accurately ripped (confidence 2) [6B2A1E30] (AR v1)
Track 6 accurately ripped (confidence 2) [DCF309EF] (AR v1)
Track 7 accurately ripped (confidence 2) [AEA16DA4] (AR v1)
Track 8 accurately ripped (confidence 2) [06418239] (AR v1)
Track 9 accurately ripped (confidence 2) [B6F2AEA8] (AR v1)
Track 10 accurately ripped (confidence 2) [1939DFE8] (AR v1)
Track 11 accurately ripped (confidence 2) [4B9BBBDF] (AR v1)
Track 12 accurately ripped (confidence 2) [D252E3D3] (AR v1)
Track 13 accurately ripped (confidence 2) [5AD0074D] (AR v1)
Track 14 accurately ripped (confidence 2) [829319B8] (AR v1)
Track 15 accurately ripped (confidence 2) [63368328] (AR v1)
Track 16 accurately ripped (confidence 2) [A5422AD5] (AR v1)
All tracks accurately ripped
End of status report
---- CUETools DB Plugin V2.1.3
[CTDB TOCID: 8GQ.AWzSU_Sx89YjEkUvGh2Lc0c-] disk not present in database, Submit result: 8GQ.AWzSU_Sx89YjEkUvGh2Lc0c- has been uploaded
==== Log checksum 0359FF64F86FF1BA4763D4EE7FDD9A5DC3A13D316547A8C4037BE1A950C2E498 ====

CD2

Exact Audio Copy V1.0 beta 3 from 29. August 2011
EAC extraction logfile from 11. October 2014, 15:22
Wagner / Die Meistersinger von Nürnberg, Furtwängler CD2
Used drive : TS8XDVDSTRANSCEND Adapter: 1 ID: 1
Read mode : Secure
Utilize accurate stream : Yes
Defeat audio cache : Yes
Make use of C2 pointers : No
Read offset correction : 6
Overread into Lead-In and Lead-Out : No
Fill up missing offset samples with silence : Yes
Delete leading and trailing silent blocks : No
Null samples used in CRC calculations : Yes
Used interface : Native Win32 interface for Win NT & 2000
Used output format : Monkey's Audio Lossless Encoder
Selected bitrate : High Lossless Compression
Quality : High
Add ID3 tag : Yes
Command line compressor : C:\Program Files (x86)\Exact Audio Copy\MAC\MAC.exe
TOC of the extracted CD
Track | Start | Length | Start sector | End sector
---------------------------------------------------------
1 | 0:00.00 | 3:57.04 | 0 | 17778
2 | 3:57.04 | 6:10.46 | 17779 | 45574
3 | 10:07.50 | 0:51.49 | 45575 | 49448
4 | 10:59.24 | 5:58.49 | 49449 | 76347
5 | 16:57.73 | 8:52.14 | 76348 | 116261
6 | 25:50.12 | 1:52.43 | 116262 | 124704
7 | 27:42.55 | 3:49.52 | 124705 | 141931
8 | 31:32.32 | 2:06.31 | 141932 | 151412
9 | 33:38.63 | 1:43.43 | 151413 | 159180
10 | 35:22.31 | 1:03.51 | 159181 | 163956
11 | 36:26.07 | 5:20.05 | 163957 | 187961
12 | 41:46.12 | 7:43.30 | 187962 | 222716
13 | 49:29.42 | 11:47.01 | 222717 | 275742
Range status and errors
Selected range
Filename D:\EAC\Wagner - Die Meistersinger von Nürnberg, Furtwängler CD2.wav
Peak level 80.8 %
Extraction speed 3.1 X
Range quality 99.9 %
Test CRC C289910B
Copy CRC C289910B
Copy OK
No errors occurred
AccurateRip summary
Track 1 accurately ripped (confidence 2) [3E20256C] (AR v1)
Track 2 accurately ripped (confidence 2) [679A8460] (AR v1)
Track 3 accurately ripped (confidence 2) [9A1B2554] (AR v1)
Track 4 accurately ripped (confidence 2) [CE8F0F1F] (AR v1)
Track 5 accurately ripped (confidence 2) [7589F333] (AR v1)
Track 6 accurately ripped (confidence 2) [92BC3B53] (AR v1)
Track 7 accurately ripped (confidence 2) [6294FB2E] (AR v1)
Track 8 accurately ripped (confidence 2) [AC7C757B] (AR v1)
Track 9 accurately ripped (confidence 2) [786AE465] (AR v1)
Track 10 accurately ripped (confidence 2) [803848AD] (AR v1)
Track 11 accurately ripped (confidence 2) [CB6309E6] (AR v1)
Track 12 accurately ripped (confidence 2) [F8BBADB7] (AR v1)
Track 13 accurately ripped (confidence 2) [E83B9B83] (AR v1)
All tracks accurately ripped
End of status report
---- CUETools DB Plugin V2.1.3
[CTDB TOCID: U9Y1Nz80kIBu6YZYcu6HwA1C.tI-] disk not present in database, Submit result: unrecognized or virtual drive
==== Log checksum 73A6B93DA6030AA78842EDA38AA173DE87CBC922D1EDEE0F873275C694398801 ====

CD3

Exact Audio Copy V1.0 beta 3 from 29. August 2011
EAC extraction logfile from 11. October 2014, 15:40
Wagner / Die Meistersinger von Nürnberg, Furtwängler CD3
Used drive : TSSTcorpCDDVDW SE-208AB Adapter: 1 ID: 0
Read mode : Secure
Utilize accurate stream : Yes
Defeat audio cache : Yes
Make use of C2 pointers : No
Read offset correction : 6
Overread into Lead-In and Lead-Out : No
Fill up missing offset samples with silence : Yes
Delete leading and trailing silent blocks : No
Null samples used in CRC calculations : Yes
Used interface : Native Win32 interface for Win NT & 2000
Used output format : Monkey's Audio Lossless Encoder
Selected bitrate : High Lossless Compression
Quality : High
Add ID3 tag : Yes
Command line compressor : C:\Program Files (x86)\Exact Audio Copy\MAC\MAC.exe
TOC of the extracted CD
Track | Start | Length | Start sector | End sector
---------------------------------------------------------
1 | 0:00.00 | 7:21.28 | 0 | 33102
2 | 7:21.28 | 4:17.59 | 33103 | 52436
3 | 11:39.12 | 3:24.64 | 52437 | 67800
4 | 15:04.01 | 7:01.41 | 67801 | 99416
5 | 22:05.42 | 4:16.49 | 99417 | 118665
6 | 26:22.16 | 4:57.18 | 118666 | 140958
7 | 31:19.34 | 10:55.04 | 140959 | 190087
8 | 42:14.38 | 6:30.74 | 190088 | 219411
Range status and errors
Selected range
Filename D:\EAC\Wagner - Die Meistersinger von Nürnberg, Furtwängler CD3.wav
Peak level 66.3 %
Extraction speed 1.9 X
Range quality 100.0 %
Test CRC 42AFF8C0
Copy CRC 42AFF8C0
Copy OK
No errors occurred
AccurateRip summary
Track 1 accurately ripped (confidence 2) [AC892734] (AR v1)
Track 2 accurately ripped (confidence 2) [19E05272] (AR v1)
Track 3 accurately ripped (confidence 2) [73B0F8F5] (AR v1)
Track 4 accurately ripped (confidence 2) [F81E11DD] (AR v1)
Track 5 accurately ripped (confidence 2) [CEFE918C] (AR v1)
Track 6 accurately ripped (confidence 2) [835894E5] (AR v1)
Track 7 accurately ripped (confidence 2) [40EF3AA8] (AR v1)
Track 8 accurately ripped (confidence 2) [DDA178AE] (AR v1)
All tracks accurately ripped
End of status report
---- CUETools DB Plugin V2.1.3
[CTDB TOCID: GL6BVwJzrHkuhJxgzOskPyHnx_0-] disk not present in database, Submit result: GL6BVwJzrHkuhJxgzOskPyHnx_0- has been uploaded
==== Log checksum ADF9E9DDE453888D83E1243AB847D60F5B6426030208B60E298928FC4CE3C353 ====

CD4

Exact Audio Copy V1.0 beta 3 from 29. August 2011
EAC extraction logfile from 11. October 2014, 16:10
Wagner / Die Meistersinger von Nürnberg, Furtwängler CD4
Used drive : TS8XDVDSTRANSCEND Adapter: 1 ID: 1
Read mode : Secure
Utilize accurate stream : Yes
Defeat audio cache : Yes
Make use of C2 pointers : No
Read offset correction : 6
Overread into Lead-In and Lead-Out : No
Fill up missing offset samples with silence : Yes
Delete leading and trailing silent blocks : No
Null samples used in CRC calculations : Yes
Used interface : Native Win32 interface for Win NT & 2000
Used output format : Monkey's Audio Lossless Encoder
Selected bitrate : High Lossless Compression
Quality : High
Add ID3 tag : Yes
Command line compressor : C:\Program Files (x86)\Exact Audio Copy\MAC\MAC.exe
TOC of the extracted CD
Track | Start | Length | Start sector | End sector
---------------------------------------------------------
1 | 0:00.00 | 7:32.05 | 0 | 33904
2 | 7:32.05 | 6:27.48 | 33905 | 62977
3 | 13:59.53 | 5:15.56 | 62978 | 86658
4 | 19:15.34 | 5:02.19 | 86659 | 109327
5 | 24:17.53 | 2:39.46 | 109328 | 121298
6 | 26:57.24 | 5:51.47 | 121299 | 147670
7 | 32:48.71 | 5:19.02 | 147671 | 171597
8 | 38:07.73 | 2:19.16 | 171598 | 182038
9 | 40:27.14 | 3:39.71 | 182039 | 198534
10 | 44:07.10 | 4:04.14 | 198535 | 216848
11 | 48:11.24 | 7:53.04 | 216849 | 252327
12 | 56:04.28 | 6:02.45 | 252328 | 279522
Range status and errors
Selected range
Filename D:\EAC\Wagner - Die Meistersinger von Nürnberg, Furtwängler CD4.wav
Peak level 72.6 %
Extraction speed 3.1 X
Range quality 100.0 %
Test CRC F9E9F66C
Copy CRC F9E9F66C
Copy OK
No errors occurred
AccurateRip summary
Track 1 accurately ripped (confidence 2) [DE106A41] (AR v1)
Track 2 accurately ripped (confidence 2) [1B62A95A] (AR v1)
Track 3 accurately ripped (confidence 2) [28AE0EDC] (AR v1)
Track 4 accurately ripped (confidence 2) [FCD745C1] (AR v1)
Track 5 accurately ripped (confidence 2) [98FA3697] (AR v1)
Track 6 accurately ripped (confidence 2) [40C80AEC] (AR v1)
Track 7 accurately ripped (confidence 2) [9C433F26] (AR v1)
Track 8 accurately ripped (confidence 2) [332930FA] (AR v1)
Track 9 accurately ripped (confidence 2) [4EE6AD8C] (AR v1)
Track 10 accurately ripped (confidence 2) [0E1FCA7A] (AR v1)
Track 11 accurately ripped (confidence 2) [13A76018] (AR v1)
Track 12 accurately ripped (confidence 2) [2935F2CC] (AR v1)
All tracks accurately ripped
End of status report
---- CUETools DB Plugin V2.1.3
[CTDB TOCID: 5DurPWe8K4cfouHPQ9LPAZgZ4r0-] disk not present in database, Submit result: unrecognized or virtual drive
==== Log checksum 2F04A2DA125ACF253F66D5235D1635F7F09A1E9A549B32B2119867E6891F5923 ====

Содержание индексной карты (.CUE)

CD1

REM GENRE Opera
REM DATE 1943
REM DISCID 0E106B10
REM COMMENT "ExactAudioCopy v1.0b3"
CATALOG 7237237892282
PERFORMER "Wagner"
TITLE "Die Meistersinger von Nürnberg, Furtwängler CD1"
FILE "Wagner - Die Meistersinger von Nürnberg, Furtwängler CD1.ape" WAVE
TRACK 01 AUDIO
TITLE "Prelude to Act I"
PERFORMER "Wagner"
FLAGS DCP
INDEX 01 00:00:00
TRACK 02 AUDIO
TITLE "Da zu dir der Heiland kam"
PERFORMER "Wagner"
FLAGS DCP
INDEX 01 09:00:65
TRACK 03 AUDIO
TITLE "Mein Herr! der Singer Meister Schlag"
PERFORMER "Wagner"
FLAGS DCP
INDEX 01 12:33:03
TRACK 04 AUDIO
TITLE "Der Meister Tön' und Weisen"
PERFORMER "Wagner"
FLAGS DCP
INDEX 01 15:33:72
TRACK 05 AUDIO
TITLE "Damit, Herr Ritter, ist's so bewandt!"
PERFORMER "Wagner"
FLAGS DCP
INDEX 01 20:57:17
TRACK 06 AUDIO
TITLE "Aller End' ist doch David der Allergescheit'st'!"
PERFORMER "Wagner"
FLAGS DCP
INDEX 01 22:26:57
TRACK 07 AUDIO
TITLE "Seid meiner Treue wohl versehen"
PERFORMER "Wagner"
FLAGS DCP
INDEX 01 25:32:38
TRACK 08 AUDIO
TITLE "Gott grüß euch, Meister!"
PERFORMER "Wagner"
FLAGS DCP
INDEX 01 29:33:58
TRACK 09 AUDIO
TITLE "Das schöne Fest, Johannistag"
PERFORMER "Wagner"
FLAGS DCP
INDEX 01 32:34:26
TRACK 10 AUDIO
TITLE "Vielleicht schon ginger ihr zu weit"
PERFORMER "Wagner"
FLAGS DCP
INDEX 01 39:24:70
TRACK 11 AUDIO
TITLE "Dacht' ich mir's doch!"
PERFORMER "Wagner"
FLAGS DCP
INDEX 01 44:34:22
TRACK 12 AUDIO
TITLE "Am stillen Herd in Winterzeit"
PERFORMER "Wagner"
FLAGS DCP
INDEX 01 47:04:21
TRACK 13 AUDIO
TITLE "Nun, Meister, wenn's gefällt"
PERFORMER "Wagner"
FLAGS DCP
INDEX 01 52:23:38
TRACK 14 AUDIO
TITLE "Fanget an!"
PERFORMER "Wagner"
FLAGS DCP
INDEX 01 57:37:38
TRACK 15 AUDIO
TITLE "Seid ihr nun fertig?"
PERFORMER "Wagner"
FLAGS DCP
INDEX 01 60:53:18
TRACK 16 AUDIO
TITLE "Halt! Mesiter! Nicht so geeilt!"
PERFORMER "Wagner"
FLAGS DCP
INDEX 01 63:06:21

CD2

REM GENRE Opera
REM DATE 1943
REM DISCID AD0E5C0D
REM COMMENT "ExactAudioCopy v1.0b3"
CATALOG 7237237892282
PERFORMER "Wagner"
TITLE "Die Meistersinger von Nürnberg, Furtwängler CD2"
FILE "Wagner - Die Meistersinger von Nürnberg, Furtwängler CD2.ape" WAVE
TRACK 01 AUDIO
TITLE "Johannistag! Johannistag!"
PERFORMER "Wagner"
FLAGS DCP
INDEX 01 00:00:00
TRACK 02 AUDIO
TITLE "Lass seh'n, ob Meister Sachs zu Haus?"
PERFORMER "Wagner"
FLAGS DCP
INDEX 01 03:57:04
TRACK 03 AUDIO
TITLE "Zeig her! - 's ist gut"
PERFORMER "Wagner"
FLAGS DCP
INDEX 01 10:07:50
TRACK 04 AUDIO
TITLE "Was duftet doch der Flieder"
PERFORMER "Wagner"
FLAGS DCP
INDEX 01 10:59:24
TRACK 05 AUDIO
TITLE "Gut'n Abend, Meister!"
PERFORMER "Wagner"
FLAGS DCP
INDEX 01 16:57:73
TRACK 06 AUDIO
TITLE "Hilf Gott! Wo bliebst du nur so spat?"
PERFORMER "Wagner"
FLAGS DCP
INDEX 01 25:50:12
TRACK 07 AUDIO
TITLE "Da ist er!"
PERFORMER "Wagner"
FLAGS DCP
INDEX 01 27:42:55
TRACK 08 AUDIO
TITLE "Geliebter, spare den Zorn!"
PERFORMER "Wagner"
FLAGS DCP
INDEX 01 31:32:32
TRACK 09 AUDIO
TITLE "Uble Dinge, die ich da merk'"
PERFORMER "Wagner"
FLAGS DCP
INDEX 01 33:38:63
TRACK 10 AUDIO
TITLE "Tu's nicht! Doch horch!"
PERFORMER "Wagner"
FLAGS DCP
INDEX 01 35:22:31
TRACK 11 AUDIO
TITLE "Jerum! Jerum!"
PERFORMER "Wagner"
FLAGS DCP
INDEX 01 36:26:07
TRACK 12 AUDIO
TITLE "Das Fenster geht auf"
PERFORMER "Wagner"
FLAGS DCP
INDEX 01 41:46:12
TRACK 13 AUDIO
TITLE "Den Tag seh' ich erscheinen"
PERFORMER "Wagner"
FLAGS DCP
INDEX 01 49:29:42

CD3

REM GENRE Opera
REM DATE 1943
REM DISCID 650B6D08
REM COMMENT "ExactAudioCopy v1.0b3"
CATALOG 7237237892282
PERFORMER "Wagner"
TITLE "Die Meistersinger von Nürnberg, Furtwängler CD3"
FILE "Wagner - Die Meistersinger von Nürnberg, Furtwängler CD3.ape" WAVE
TRACK 01 AUDIO
TITLE "Prelude to Act Three"
PERFORMER "Wagner"
FLAGS DCP
INDEX 01 00:00:00
TRACK 02 AUDIO
TITLE "Gleich Meister! Hier!"
PERFORMER "Wagner"
FLAGS DCP
INDEX 01 07:21:28
TRACK 03 AUDIO
TITLE "Am Jordan Sankt Johannes stand"
PERFORMER "Wagner"
FLAGS DCP
INDEX 01 11:39:12
TRACK 04 AUDIO
TITLE "Wahn! Wahn! Uberall wahn!"
PERFORMER "Wagner"
FLAGS DCP
INDEX 01 15:04:01
TRACK 05 AUDIO
TITLE "Gruss Gott, mein Junker!"
PERFORMER "Wagner"
FLAGS DCP
INDEX 01 22:05:42
TRACK 06 AUDIO
TITLE "Mein Freund! In holder Jugendreit"
PERFORMER "Wagner"
FLAGS DCP
INDEX 01 26:22:16
TRACK 07 AUDIO
TITLE "Morgendlich leuchtend in rosigem Schein"
PERFORMER "Wagner"
FLAGS DCP
INDEX 01 31:19:34
TRACK 08 AUDIO
TITLE "Ein Webelied! Vo nSachs? - ist's wahr?"
PERFORMER "Wagner"
FLAGS DCP
INDEX 01 42:14:38

CD4

REM GENRE Opera
REM DATE 1943
REM DISCID C20E8E0C
REM COMMENT "ExactAudioCopy v1.0b3"
CATALOG 7237237892282
PERFORMER "Wagner"
TITLE "Die Meistersinger von Nürnberg, Furtwängler CD4"
FILE "Wagner - Die Meistersinger von Nürnberg, Furtwängler CD4.ape" WAVE
TRACK 01 AUDIO
TITLE "Das Gedicht? Hier liess ich's"
PERFORMER "Wagner"
FLAGS DCP
INDEX 01 00:00:00
TRACK 02 AUDIO
TITLE "Sieh, Evchen!"
PERFORMER "Wagner"
FLAGS DCP
INDEX 01 07:32:05
TRACK 03 AUDIO
TITLE "Hat man mit dem Schuhwerk nicht seine Not!"
PERFORMER "Wagner"
FLAGS DCP
INDEX 01 13:59:53
TRACK 04 AUDIO
TITLE "Sankt Crispin, lobet ihn!"
PERFORMER "Wagner"
FLAGS DCP
INDEX 01 19:15:34
TRACK 05 AUDIO
TITLE "Ihr tanzt? Was werden die Meister sagen?"
PERFORMER "Wagner"
FLAGS DCP
INDEX 01 24:17:53
TRACK 06 AUDIO
TITLE "Silentium! Silentium!... Wach auf, es nahet gen den Tag"
PERFORMER "Wagner"
FLAGS DCP
INDEX 01 26:57:24
TRACK 07 AUDIO
TITLE "Euch macht ihr's leicht, mir macht ihr's schwer"
PERFORMER "Wagner"
FLAGS DCP
INDEX 01 32:48:71
TRACK 08 AUDIO
TITLE "Nun denn, wenn's Meistern und Volk believt"
PERFORMER "Wagner"
FLAGS DCP
INDEX 01 38:07:73
TRACK 09 AUDIO
TITLE "Morgen ich leuchte in rosigem Schein"
PERFORMER "Wagner"
FLAGS DCP
INDEX 01 40:27:14
TRACK 10 AUDIO
TITLE "Das Lied, furwahr, ist nicht von mir"
PERFORMER "Wagner"
FLAGS DCP
INDEX 01 44:07:10
TRACK 11 AUDIO
TITLE "Morgendlich leuchtend im rosigen Schein"
PERFORMER "Wagner"
FLAGS DCP
INDEX 01 48:11:24
TRACK 12 AUDIO
TITLE "Verachtet mir die Meister nicht"
PERFORMER "Wagner"
FLAGS DCP
INDEX 01 56:04:28



Показать сообщения:    

Текущее время: 11-Дек 05:21

Часовой пояс: UTC + 3


Вы не можете начинать темы
Вы не можете отвечать на сообщения
Вы не можете редактировать свои сообщения
Вы не можете удалять свои сообщения
Вы не можете голосовать в опросах
Вы не можете прикреплять файлы к сообщениям
Вы не можете скачивать файлы