Загадки Рихарда Зорге (Иван Твердовский) [2005, Документальный, биография, история, IPTVRip]


Статистика раздачи [Обновить пиров]
Размер:  1.37 GB   |    Зарегистрирован:  8 месяцев 23 дня   |    Скачан:  0 раз

Полного источника не было: Никогда

 
   
 
 
 

[Цитировать]

Загадки Рихарда Зорге
Дата/Год выпуска: 2005
Страна: Россия
Жанр: Документальный, биография, история
Продолжительность: 00:44:01 + 00:43:51
Перевод: Не требуется
Русские субтитры: нет
Режиссер: Иван Твердовский
Телеканал: ТК "История"
Описание: Документальный фильм о легендарном разведчике Рихарде Зорге (1895-1944). Бесспорно, Зорге является одним из лучших разведчиков XX-го столетия. Ему удалось добыть невероятное количество самых секретных данных, а то, как складывалась его судьба, превосходит сюжеты художественных фильмов и романов. Считается, что именно благодаря Рихарду Зорге удалось отстоять Москву в 1941-м году. Еще за десять лет до Второй мировой войны Зорге был заброшен в Японию, где под легендой журналиста собирал секретные сведения и передавал их в Кремль. Однако жизнь Зорге оборвалась трагически – в 1944-м его удалось разоблачить японской разведке. Казнь состоялась в одной из тюрем Токио. Примечательно, что о подвигах Зорге советский народ узнал лишь спустя два десятилетия. В 1964-м году Зорге было присвоено звание Героя Советского Союза (посмертно)
Сэмпл: http://multi-up.com/1008213
качество: IPTVRip
формат: AVI
Видео: 720x544 (1.32:1), 25 fps, XviD build 65 ~2032 kbps avg, 0.21 bit/pixel
Аудио: 48 kHz, AC3 Dolby Digital, 2/0 (L,R) ch, ~192 kbps

MediaInfo

General
Complete name : L:\Pshichko66\Na zapis'\Документальные фильмы\Zagadki Riharda Zorge\1 serija.avi
Format : AVI
Format/Info : Audio Video Interleave
File size : 701 MiB
Duration : 44mn 1s
Overall bit rate : 2 227 Kbps
Writing application : VirtualDubMod 1.5.10.3 | www.virtualdub-fr.org || (build 2550/release)
Writing library : VirtualDubMod build 2550/release
Video
ID : 0
Format : MPEG-4 Visual
Format profile : Advanced Simple@L5
Format settings, BVOP : 2
Format settings, QPel : No
Format settings, GMC : No warppoints
Format settings, Matrix : Custom
Codec ID : DX50
Codec ID/Hint : DivX 5
Duration : 44mn 1s
Bit rate : 2 025 Kbps
Width : 720 pixels
Height : 544 pixels
Display aspect ratio : 4:3
Frame rate : 25.000 fps
Color space : YUV
Chroma subsampling : 4:2:0
Bit depth : 8 bits
Scan type : Progressive
Compression mode : Lossy
Bits/(Pixel*Frame) : 0.207
Stream size : 638 MiB (91%)
Writing library : XviD 65
Audio
ID : 1
Format : AC-3
Format/Info : Audio Coding 3
Mode extension : CM (complete main)
Format settings, Endianness : Big
Codec ID : 2000
Duration : 44mn 1s
Bit rate mode : Constant
Bit rate : 192 Kbps
Channel count : 2 channels
Channel positions : Front: L R
Sampling rate : 48.0 KHz
Bit depth : 16 bits
Compression mode : Lossy
Stream size : 60.5 MiB (9%)
Alignment : Split accross interleaves
Interleave, duration : 40 ms (1.00 video frame)
Interleave, preload duration : 500 ms
General
Complete name : L:\Pshichko66\Na zapis'\Документальные фильмы\Zagadki Riharda Zorge\2 serija.avi
Format : AVI
Format/Info : Audio Video Interleave
File size : 701 MiB
Duration : 43mn 51s
Overall bit rate : 2 235 Kbps
Writing application : VirtualDubMod 1.5.10.3 | www.virtualdub-fr.org || (build 2550/release)
Writing library : VirtualDubMod build 2550/release
Video
ID : 0
Format : MPEG-4 Visual
Format profile : Advanced Simple@L5
Format settings, BVOP : 2
Format settings, QPel : No
Format settings, GMC : No warppoints
Format settings, Matrix : Custom
Codec ID : DX50
Codec ID/Hint : DivX 5
Duration : 43mn 51s
Bit rate : 2 033 Kbps
Width : 720 pixels
Height : 544 pixels
Display aspect ratio : 4:3
Frame rate : 25.000 fps
Color space : YUV
Chroma subsampling : 4:2:0
Bit depth : 8 bits
Scan type : Progressive
Compression mode : Lossy
Bits/(Pixel*Frame) : 0.208
Stream size : 638 MiB (91%)
Writing library : XviD 65
Audio
ID : 1
Format : AC-3
Format/Info : Audio Coding 3
Mode extension : CM (complete main)
Format settings, Endianness : Big
Codec ID : 2000
Duration : 43mn 51s
Bit rate mode : Constant
Bit rate : 192 Kbps
Channel count : 2 channels
Channel positions : Front: L R
Sampling rate : 48.0 KHz
Bit depth : 16 bits
Compression mode : Lossy
Stream size : 60.2 MiB (9%)
Alignment : Split accross interleaves
Interleave, duration : 40 ms (1.00 video frame)
Interleave, preload duration : 500 ms

Скриншоты

[teatrix.ru].t19302.torrent 
Торрент: Зарегистрирован [ 2016-03-18 12:42 ] · 3C0506F86C7C03099EBCE822EE65C2747E6E263F

Скачать .torrent

Скачать

14 KB

Статус: проверено
Скачан: 0 раз
Размер: 1.37 GB
terms.php



Быстрый ответ

Имя:

      
Для отправки сообщений необходимо включить JavaScript
Показать сообщения:    

Текущее время: 10-Дек 23:31

Часовой пояс: UTC + 3


Вы можете начинать темы
Вы можете отвечать на сообщения
Вы не можете редактировать свои сообщения
Вы не можете удалять свои сообщения
Вы не можете голосовать в опросах
Вы не можете прикреплять файлы к сообщениям
Вы можете скачивать файлы