The Rolling Stones - Ураган перекрестного огня / The Rolling Stones - Crossfire Hurricane (Бретт Морген / Brett Morgen) [2012, Rock, Documentary, HDRip] MVO (1 канал) + Eng


Статистика раздачи [Обновить пиров]
Размер:  2.17 GB   |    Зарегистрирован:  8 месяцев 22 дня   |    Скачан:  0 раз

Полного источника не было: Никогда

 
   
 
 
 

[Цитировать]

The Rolling Stones - Ураган перекрестного огня / The Rolling Stones - Crossfire Hurricane
Дата/Год выпуска: 2012
Страна: США, Великобритания
Жанр: Rock, Documentary
Продолжительность: 01:51:00
Перевод: Профессиональный (многоголосый закадровый)
Доп. инфо о переводе: 1 канал
Русские субтитры: нет
Оригинальная аудиодорожка: английский
Режиссер: Бретт Морген / Brett Morgen
Телеканал: 1 канал
Описание: Фильм «The Rolling Stones – Crossfire Hurricane» – документальное посвящение легендарной британской рок-группе Rolling Stones, которая в 2012 году отметила свое пятидесятилетие. Эта картина режиссера Бретта Моргена рассказывает историю беспрецедентного пути музыкантов, начиная от того времени, когда они были одержимыми музыкой подростками в начале шестидесятых, к их бесспорному статусу суперзвезд. Все члены группы Rolling Stones дали интервью для фильма, и повествование строится в канве их рассказов. Кроме того, при создании картины «The Rolling Stones – Crossfire Hurricane» были использованы архивные видеозаписи, обширный концертный материал, новости и интервью, большей частью прежде не демонстрировавшиеся. Название фильму дала первая строчка одной из самых популярных песен группы – «Jumping Jack Flash» – «I was born in a cross-fire hurricane».
Доп. информация: Взамен своей прошлой, кем-то "исчезнувшей", раздаче.
качество: HDRip
формат: AVI
Видео: MPEG4, XviD, 720x400 (16/9), 24.000 fps, 2 146 Kbps (0.310 bit/pixel)
Аудио: AC-3, 48.0 KHz, 2 ch, 192 Kbps, CBR - русский
Аудио 2: AC-3, 48.0 KHz, 6 ch, 448 Kbps, CBR - английский

MediaInfo

Общее
Полное имя : K:\МОИ РАЗДАЧИ\The Rolling Stones - Crossfire Hurricane.avi
Формат : AVI
Формат/Информация : Audio Video Interleave
Профиль формата : OpenDML
Размер файла : 2,17 Гбайт
Продолжительность : 1 ч. 51 м.
Общий поток : 2804 Кбит/сек
Название фильма : Роллинг Стоунс - Ураган перекрестного огня / The Rolling Stones - Crossfire Hurricane (2012)
Режиссёр : miha2154
Программа кодирования : VirtualDubMod 1.5.10.2 (build 2540/release)
Правообладатель : специально для BitTorrent трекер RuTracker.org (ex torrents.ru)
Видео
Идентификатор : 0
Формат : MPEG-4 Visual
Профиль формата : Advanced Simple@L5
Параметр BVOP формата : 2
Параметр QPel формата : Нет
Параметр GMC формата : Без точки перехода
Параметр матрицы формата : Default (MPEG)
Идентификатор кодека : XVID
Идентификатор кодека/Подсказка : XviD
Продолжительность : 1 ч. 51 м.
Битрейт : 2146 Кбит/сек
Ширина : 720 пикселей
Высота : 400 пикселей
Соотношение сторон : 16:9
Частота кадров : 24,000 кадра/сек
Цветовое пространство : YUV
Субдискретизация насыщенности : 4:2:0
Битовая глубина : 8 бит
Тип развёртки : Прогрессивная
Метод сжатия : С потерями
Бит/(Пиксели*Кадры) : 0.310
Размер потока : 1,66 Гбайт (77%)
Библиотека кодирования : XviD 1.1.0 (UTC 2005-11-22)
Аудио #1
Идентификатор : 1
Формат : AC-3
Формат/Информация : Audio Coding 3
Расширение режима : CM (complete main)
Параметр Endianness формата : Big
Идентификатор кодека : 2000
Продолжительность : 1 ч. 51 м.
Вид битрейта : Постоянный
Битрейт : 192 Кбит/сек
Каналы : 2 канала
Расположение каналов : Front: L R
Частота : 48,0 КГц
Битовая глубина : 16 бит
Метод сжатия : С потерями
Размер потока : 152 Мбайт (7%)
Выравнивание : Разделение по промежуткам
Продолжительность промежутка : 42 мс. (1,00 видеокадр)
Время предзагрузки промежутка : 500 мс.
Заголовок : Профессиональный (многоголосый закадровый) 1 канал
Аудио #2
Идентификатор : 2
Формат : AC-3
Формат/Информация : Audio Coding 3
Расширение режима : CM (complete main)
Параметр Endianness формата : Big
Идентификатор кодека : 2000
Продолжительность : 1 ч. 51 м.
Вид битрейта : Постоянный
Битрейт : 448 Кбит/сек
Каналы : 6 каналов
Расположение каналов : Front: L C R, Side: L R, LFE
Частота : 48,0 КГц
Битовая глубина : 16 бит
Метод сжатия : С потерями
Размер потока : 356 Мбайт (16%)
Выравнивание : Разделение по промежуткам
Продолжительность промежутка : 42 мс. (1,00 видеокадр)
Время предзагрузки промежутка : 500 мс.
Заголовок : Английский

Скриншоты

[teatrix.ru].t19304.torrent 
Торрент: Зарегистрирован [ 2016-03-18 12:39 ] · 42EA2A9E47299A5E37383EE02ED38682BB726CB2

Скачать .torrent

Скачать

11 KB

Статус: проверено
Скачан: 0 раз
Размер: 2.17 GB
terms.php



Быстрый ответ

Имя:

      
Для отправки сообщений необходимо включить JavaScript
Показать сообщения:    

Текущее время: 10-Дек 06:08

Часовой пояс: UTC + 3


Вы можете начинать темы
Вы можете отвечать на сообщения
Вы не можете редактировать свои сообщения
Вы не можете удалять свои сообщения
Вы не можете голосовать в опросах
Вы не можете прикреплять файлы к сообщениям
Вы можете скачивать файлы