Неизвестная Мэрилин / Фрагменты: Мэрилин Монро / Love, Marilyn / Fragments: Marilyn Monroe (Лиз Гарбус / Liz Garbus) [2012, документальный, биографический, DVB] DVO (24ДОК)


Статистика раздачи [Обновить пиров]
Размер:  1.98 GB   |    Зарегистрирован:  8 месяцев 22 дня   |    Скачан:  0 раз

Полного источника не было: Никогда

 
   
 
 
 

[Цитировать]

Неизвестная Мэрилин
Love, Marilyn- Дата/Год выпуска: 2012
Страна: США, Франция
Жанр: документальный, биографический
Продолжительность: 01:43:12
Перевод: Профессиональный (двухголосый закадровый)
Доп. инфо о переводе: 24ДОК
Русские субтитры: есть
Формат субтитров: hardsub (неотключаемые) форсированные
Режиссер: Лиз Гарбус / Liz Garbus
Телеканал: 24ДОКВ ролях: Мэрилин Монро (Archive), Ф. Мюррей Абрахам, Эдриен Броуди, Эллен Бёрстин, Гленн Клоуз, Стивен Лэнг, Линдсей Лохан, Джереми Пайвен, Оливер Платт, Лили Тейлор, Ума Турман, Мариса Томей
Описание: Фильм раскрывает образ Мэрилин Монро с новой, неизвестной широкой публике стороны. Фильм основан на воспоминаниях Трумена Капоте, Элиа Казана, книге Нормана Майлера, пьесе Артура Миллера, письмах Билли Уайлдера, а также многочисленных дневниках, письмах и стихах, написанных самой Мэрилин и найденных среди вещей Артура Миллера — последнего мужа звезды, собранных Stanley F. Buchthal и Bernard Comment и опубликованных под названием "Fragments: Poems, Intimate Notes, Letters by Marilyn Monroe" (2010).
Доп. информация: DVB-S
Награда Newport Beach Film Festival 2013 за лучший монтаж.

качество: DVB
формат: MKV
Видео: MPEG Video 2, 720x576@768x576 (4:3), 25 fps, ~2497 kbps avg, 0.241 bit/pixel
Аудио: MPEG Audio 2, 2 ch, 48 kHz, ~192.00 kbps avg

MediaInfo

Общее
Уникальный идентификатор : 188418393366273637997819555811238040309 (0x8DC010059E8B8DD492BD27DD880752F5)
Полное имя : E:\My Torrents 2\[apreder]Love_Marilyn(2012)DVB.mkv
Формат : Matroska
Версия формата : Version 2
Размер файла : 1,98 Гбайт
Продолжительность : 1 ч. 43 м.
Режим общего битрейта : Переменный
Общий поток : 2744 Кбит/сек
Дата кодирования : UTC 2014-10-24 17:37:16
Программа кодирования : mkvmerge v7.3.0 ('Nouages') 64bit built on Oct 22 2014 18:53:34
Библиотека кодирования : libebml v1.3.0 + libmatroska v1.4.1
Видео
Идентификатор : 1
Формат : MPEG Video
Версия формата : Version 2
Профиль формата : Main@Main
Параметр BVOP формата : Нет
Параметр матрицы формата : Выборочная
Format_Settings_PictureStructure : Frame
Идентификатор кодека : V_MPEG2
Идентификатор кодека/Информация : MPEG 1 or 2 Video
Продолжительность : 1 ч. 43 м.
Вид битрейта : Переменный
Битрейт : 2497 Кбит/сек
Максимальный битрейт : 6116 Кбит/сек
Ширина : 720 пикселей
Высота : 576 пикселей
Соотношение сторон : 4:3
Режим частоты кадров : Постоянный
Частота кадров : 25,000 кадров/сек
Стандарт вещания : PAL
Цветовое пространство : YUV
Субдискретизация насыщенности : 4:2:0
Битовая глубина : 8 бит
Тип развёртки : Чересстрочная
Порядок развёртки : Верхнее поле первое
Метод сжатия : С потерями
Бит/(Пиксели*Кадры) : 0.241
Временной код первого кадра : 00:00:00:00
Оригинал временного кода : Group of pictures header
Размер потока : 1,80 Гбайт (91%)
Default : Да
Forced : Нет
Аудио
Идентификатор : 2
Формат : MPEG Audio
Версия формата : Version 1
Профиль формата : Layer 2
Идентификатор кодека : A_MPEG/L2
Идентификатор кодека/Подсказка : MP2
Продолжительность : 1 ч. 43 м.
Вид битрейта : Постоянный
Битрейт : 192 Кбит/сек
Каналы : 2 канала
Частота : 48,0 КГц
Метод сжатия : С потерями
Размер потока : 142 Мбайт (7%)
Язык : Russian
Default : Да
Forced : Нет

Скриншоты


Резервные скриншоты


-[1'840]
[teatrix.ru].t19305.torrent 
Торрент: Зарегистрирован [ 2016-03-18 12:39 ] · A3ABA587213E58772D8424AFF75F25FD4F98D12B

Скачать .torrent

Скачать

20 KB

Статус: проверено
Скачан: 0 раз
Размер: 1.98 GB
terms.php



Быстрый ответ

Имя:

      
Для отправки сообщений необходимо включить JavaScript
Показать сообщения:    

Текущее время: 10-Дек 10:00

Часовой пояс: UTC + 3


Вы можете начинать темы
Вы можете отвечать на сообщения
Вы не можете редактировать свои сообщения
Вы не можете удалять свои сообщения
Вы не можете голосовать в опросах
Вы не можете прикреплять файлы к сообщениям
Вы можете скачивать файлы