(Classical) Matthias Weckmann - Conjuratio: Sacred Concertos & Motets - Maria Keohane, Carlos Mena, Hans-Jorg Mammel, Stephan MacLeod, Maude Gratton, Ricercar Consort, Philippe Pierlot - 2013, FLAC (image+.cue) lossless


Статистика раздачи [Обновить пиров]
Размер:  432 MB   |    Зарегистрирован:  8 месяцев 23 дня   |    Скачан:  0 раз

Полного источника не было: Никогда

 
   
 
 
 

[Цитировать]

Matthias Weckmann - Conjuratio: Sacred Concertos & Motets - Maria Keohane, Carlos Mena, Hans-Jörg Mammel, Stephan MacLeod, Maude Gratton, Ricercar Consort, Philippe Pierlot
Жанр: Classical
Страна-производитель диска: France
Год издания диска: 2013
Издатель (лейбл): Mirare
Номер по каталогу: MIR 204
Дата записи: 2012
Аудиокодек: FLAC
Тип рипа: image+.cue
Битрейт аудио: lossless
Продолжительность: 79:10
Источник: собственный рип
Наличие сканов в содержимом раздачи: да
Треклист:
Matthias Weckmann (1615-1674)
[1] Concerto I. Weine nicht, Es hat überwunden. à 9
[2] Concerto II. Zion spricht: Der Herr hat mich verlassen. à 8
[3] Praembulum Primi toni a 5
[4] Concerto III. Herr, wenn ich nur dich habe. à 8
[5] Concerto IV. Wie liegt die Stadt so wüste. à 7
[6]-[8] Nun freut euch, lieben Christen g’mein
[9] Kommet heer zu mir alle die ihr Mühselig und beladen seÿdt. à 6
[10] Wenn der Herr die Gefangenen zu Zion
[11]-[14] Magnificat Secundi Toni
Исполнители:
Maria Keohane soprano
Carlos Mena alto
Hans-Jörg Mammel ténor
Stephan MacLeod basse
Maude Gratton orgue
Ricercar Consort
Philippe Pierlot

Лог создания рипа

Exact Audio Copy V1.0 beta 3 from 29. August 2011
EAC extraction logfile from 11. October 2014, 20:52
Ricercar Consort, Philippe Pierlot / Weckmann - Conjuratio
Used drive : HL-DT-STDVDRAM GU70N Adapter: 0 ID: 0
Read mode : Secure
Utilize accurate stream : Yes
Defeat audio cache : Yes
Make use of C2 pointers : No
Read offset correction : 48
Overread into Lead-In and Lead-Out : No
Fill up missing offset samples with silence : Yes
Delete leading and trailing silent blocks : No
Null samples used in CRC calculations : Yes
Used interface : Native Win32 interface for Win NT & 2000
Used output format : User Defined Encoder
Selected bitrate : 128 kBit/s
Quality : High
Add ID3 tag : No
Command line compressor : C:\Program Files (x86)\Exact Audio Copy\Flac\flac.exe
Additional command line options : -V -8 -T "Date=%year%" -T "Genre=%genre%" %source%
TOC of the extracted CD
Track | Start | Length | Start sector | End sector
---------------------------------------------------------
1 | 0:00.00 | 13:10.03 | 0 | 59252
2 | 13:10.03 | 8:07.47 | 59253 | 95824
3 | 21:17.50 | 3:25.33 | 95825 | 111232
4 | 24:43.08 | 7:44.09 | 111233 | 146041
5 | 32:27.17 | 14:51.64 | 146042 | 212930
6 | 47:19.06 | 1:47.13 | 212931 | 220968
7 | 49:06.19 | 1:49.65 | 220969 | 229208
8 | 50:56.09 | 2:18.55 | 229209 | 239613
9 | 53:14.64 | 8:28.53 | 239614 | 277766
10 | 61:43.42 | 10:25.37 | 277767 | 324678
11 | 72:09.04 | 1:25.66 | 324679 | 331119
12 | 73:34.70 | 2:09.42 | 331120 | 340836
13 | 75:44.37 | 2:06.41 | 340837 | 350327
14 | 77:51.03 | 1:18.60 | 350328 | 356237
Range status and errors
Selected range
Filename C:\temp\Weckmann - Conjuratio\Weckmann - Conjuratio.wav
Peak level 97.1 %
Extraction speed 2.3 X
Range quality 100.0 %
Test CRC 32A27DBD
Copy CRC 32A27DBD
Copy OK
No errors occurred
AccurateRip summary
Track 1 accurately ripped (confidence 4) [948B438E] (AR v2)
Track 2 accurately ripped (confidence 4) [2CBD14BD] (AR v2)
Track 3 accurately ripped (confidence 4) [1F71CE48] (AR v2)
Track 4 accurately ripped (confidence 4) [2D74AD6D] (AR v2)
Track 5 accurately ripped (confidence 4) [2D48A6F2] (AR v2)
Track 6 accurately ripped (confidence 4) [404E5EF3] (AR v2)
Track 7 accurately ripped (confidence 4) [CCE0B7A5] (AR v2)
Track 8 accurately ripped (confidence 4) [02A2A847] (AR v2)
Track 9 accurately ripped (confidence 4) [9F6DBD46] (AR v2)
Track 10 accurately ripped (confidence 4) [4979ECD2] (AR v2)
Track 11 accurately ripped (confidence 4) [6F5D8F20] (AR v2)
Track 12 accurately ripped (confidence 5) [638FD58E] (AR v2)
Track 13 accurately ripped (confidence 5) [1F334D33] (AR v2)
Track 14 accurately ripped (confidence 5) [6065F1D6] (AR v2)
All tracks accurately ripped
End of status report
==== Log checksum 58809D9FD1327C5EC0E40BBCB13290CC58A72B9997E6FEABED120D9D99EE9FA7 ====
[teatrix.ru].t19306.torrent 
Торрент: Зарегистрирован [ 2016-03-18 12:39 ] · F6A4660DA81840F07BA9C2D5B7AF98C2A7554C3C

Скачать .torrent

Скачать

35 KB

Статус: проверено
Скачан: 0 раз
Размер: 432 MB
terms.php



Быстрый ответ

Имя:

      
Для отправки сообщений необходимо включить JavaScript
Показать сообщения:    

Текущее время: 11-Дек 03:21

Часовой пояс: UTC + 3


Вы можете начинать темы
Вы можете отвечать на сообщения
Вы не можете редактировать свои сообщения
Вы не можете удалять свои сообщения
Вы не можете голосовать в опросах
Вы не можете прикреплять файлы к сообщениям
Вы можете скачивать файлы