(Classical) [LP] [24/48] Сопрано Виктория Де Лос Анхелес - Из Сокровищницы Мирового Исполнительского Искусства - 1980, FLAC (image+.cue)


Статистика раздачи [Обновить пиров]
Размер:  483 MB   |    Зарегистрирован:  8 месяцев 19 дней   |    Скачан:  0 раз

Полного источника не было: Никогда

 
   
 
 
 

[Цитировать]

Сопрано Виктория Де Лос Анхелес - Из Сокровищницы Мирового Исполнительского Искусства
Жанр: Classical
Носитель: LP
Год выпуска: 1980
Лейбл: Melodya
Страна-производитель: USSR
Аудио кодек: FLAC
Тип рипа: image+.cue
Формат записи: 32/192
Формат раздачи: 24/48
Продолжительность: 48.25 min
Треклист:
01. Arias from the opera Orlando furioso - Act I
02. Arias from the opera Orlando furioso - Act II
03. Seguidilla from the opera Carmen - Act I
04. Cancion del amor dolido (No.3)
05. Cancion del fuego fatuo (No.10)
06. El pano moruno
07. Seguidilla murciana
08. Asturiana
09. Jota
10. Nana (Lullaby)
11. Cancion
12. Polo
13. Let Us Wander
14. Lost Is My Quiet
15. All Through the Night
16. Ah,rammenta, Oh, Bella Irene
17. They Bid Me Slight My dermott Dear
18. The Dream
19. Mignon und der Hafner
20. Scottish Ballad
Источник оцифровки: автором раздачи
Код класса состояния винила: Mint
Устройство воспроизведения: Электроника ЭП 017С
Головка звукоснимателя: Audio-Technica AT95
Предварительный усилитель: Бриг-001
АЦП: VIA HD audio device
Программа-оцифровщик: Izotope RX III Advanced
Обработка: Manual

Спектр+АЧХ+Уровень записи


DR=11

foobar2000 1.1.10 / Dynamic Range Meter 1.1.1
log date: 2014-10-21 20:05:56
--------------------------------------------------------------------------------
Analyzed: Victoria De Los Angeles / Soprano
--------------------------------------------------------------------------------
DR Peak RMS Duration Track
--------------------------------------------------------------------------------
DR14 0.00 dB -19.38 dB 5:05 ?-Arias from the opera Orlando furioso - Act I
DR11 -2.39 dB -18.35 dB 2:07 ?-Arias from the opera Orlando furioso - Act II
DR13 -1.91 dB -21.00 dB 2:18 ?-Seguidilla from the opera Carmen - Act I
DR13 -1.45 dB -17.11 dB 1:29 ?-Cancion del amor dolido (No.3)
DR12 -3.53 dB -19.55 dB 1:36 ?-Cancion del fuego fatuo (No.10)
DR10 -4.90 dB -19.05 dB 1:18 ?-El pano moruno
DR10 -2.54 dB -16.10 dB 1:13 ?-Seguidilla murciana
DR13 -7.04 dB -27.34 dB 2:52 ?-Asturiana
DR10 -5.05 dB -18.84 dB 2:51 ?-Jota
DR12 -9.78 dB -29.54 dB 1:33 ?-Nana (Lullaby)
DR12 -4.99 dB -21.00 dB 1:02 ?-Cancion
DR9 -2.09 dB -15.46 dB 1:33 ?-Polo
DR11 -2.47 dB -17.55 dB 2:08 ?-Let Us Wander
DR10 -2.55 dB -16.65 dB 2:40 ?-Lost Is My Quiet
DR12 -2.22 dB -20.61 dB 2:54 ?-All Through the Night
DR12 -2.60 dB -19.86 dB 2:35 ?-Ah,rammenta, Oh, Bella Irene
DR10 -2.00 dB -16.30 dB 2:05 ?-They Bid Me Slight My dermott Dear
DR11 -1.70 dB -17.30 dB 3:39 ?-The Dream
DR11 -1.88 dB -18.83 dB 4:04 ?-Mignon und der Hafner
DR11 -1.38 dB -16.73 dB 3:21 ?-Scottish Ballad
--------------------------------------------------------------------------------
Number of tracks: 20
Official DR value: DR11
Samplerate: 48000 Hz
Channels: 2
Bits per sample: 24
Bitrate: 1362 kbps
Codec: FLAC
================================================================================

Back,Inner & Disc





[teatrix.ru].t19308.torrent 
Торрент: Зарегистрирован [ 2016-03-18 12:42 ] · B11F098F3013CEA9ABFABD21EDCDBC0DA6FA1DE6

Скачать .torrent

Скачать

20 KB

Статус: проверено
Скачан: 0 раз
Размер: 483 MB
terms.php



Быстрый ответ

Имя:

      
Для отправки сообщений необходимо включить JavaScript
Показать сообщения:    

Текущее время: 06-Дек 15:09

Часовой пояс: UTC + 3


Вы можете начинать темы
Вы можете отвечать на сообщения
Вы не можете редактировать свои сообщения
Вы не можете удалять свои сообщения
Вы не можете голосовать в опросах
Вы не можете прикреплять файлы к сообщениям
Вы можете скачивать файлы