(Baroque Cantata) Bach J.C.F. - Cassandra (Lena Susanne Norin - Das Kleine Konzert, Hermann Max) - 2000, APE (image+.cue) lossless


 

[Цитировать]

Johann Christoph Friedrich Bach (1732-1795) - Cassandra
Жанр: Baroque Cantata
Страна-производитель диска: Germany
Год издания диска: 2000
Издатель (лейбл): CPO
Номер по каталогу: 999 593-2
Дата записи: 1995
Аудиокодек: APE
Тип рипа: image+.cue
Битрейт аудио: lossless
Продолжительность: 56'47
Источник: собственный рип
Наличие сканов в содержимом раздачи: да
Треклист:
1. Odi, o Troia, Cassandra!
2. Sospirosetti va raddoppiando gli umidi baci
3. Non sempre riderai, scherzosa Dea
4. Santa Dea, figlia di Giove
5. Nulla ottien della Dea il Re dolente!
6. Dal fondo imo algoso il fiume sdegnoso
7. Pur con l'aiuto di Vulcan
8. Vieni o sposa, te felice se ti lice
9. Ei cade sulla polve
10. Quanti danni! Quanti affanni
11. Chi nell' abisso mi sotterà?
Исполнители:
Johann Christoph Friedrich Bach (1732-1795) - Cassandra
Dramatic Cantata for Alto, Strings and Basso Continuo
Lena Susanne Norin, Alt
Das Kleine Konzert
Hermann Max

Лог создания рипа

Exact Audio Copy V1.0 beta 3 from 29. August 2011
EAC extraction logfile from 17. October 2014, 12:33
Bach J.C.F. / Cassandra, Max
Used drive : TSSTcorpCDDVDW SE-208AB Adapter: 1 ID: 0
Read mode : Secure
Utilize accurate stream : Yes
Defeat audio cache : Yes
Make use of C2 pointers : No
Read offset correction : 6
Overread into Lead-In and Lead-Out : No
Fill up missing offset samples with silence : Yes
Delete leading and trailing silent blocks : No
Null samples used in CRC calculations : Yes
Used interface : Native Win32 interface for Win NT & 2000
Used output format : Monkey's Audio Lossless Encoder
Selected bitrate : High Lossless Compression
Quality : High
Add ID3 tag : Yes
Command line compressor : C:\Program Files (x86)\Exact Audio Copy\MAC\MAC.exe
TOC of the extracted CD
Track | Start | Length | Start sector | End sector
---------------------------------------------------------
1 | 0:00.00 | 4:59.02 | 0 | 22426
2 | 4:59.02 | 3:07.28 | 22427 | 36479
3 | 8:06.30 | 5:16.67 | 36480 | 60246
4 | 13:23.22 | 3:56.08 | 60247 | 77954
5 | 17:19.30 | 13:45.65 | 77955 | 139894
6 | 31:05.20 | 2:03.72 | 139895 | 149191
7 | 33:09.17 | 3:50.63 | 149192 | 166504
8 | 37:00.05 | 8:27.10 | 166505 | 204539
9 | 45:27.15 | 3:37.60 | 204540 | 220874
10 | 49:05.00 | 6:13.42 | 220875 | 248891
11 | 55:18.42 | 1:28.48 | 248892 | 255539
Range status and errors
Selected range
Filename D:\EAC\Bach J.C.F. - Cassandra, Max.wav
Peak level 75.1 %
Extraction speed 4.5 X
Range quality 100.0 %
Test CRC 4613268E
Copy CRC 4613268E
Copy OK
No errors occurred
AccurateRip summary
Track 1 accurately ripped (confidence 2) [C783EC6E] (AR v2)
Track 2 accurately ripped (confidence 2) [0D39BF27] (AR v2)
Track 3 accurately ripped (confidence 2) [4AE54E9A] (AR v2)
Track 4 accurately ripped (confidence 2) [F967CE5A] (AR v2)
Track 5 accurately ripped (confidence 2) [31944546] (AR v2)
Track 6 accurately ripped (confidence 2) [01D0F307] (AR v2)
Track 7 accurately ripped (confidence 2) [24E7AF1C] (AR v2)
Track 8 accurately ripped (confidence 2) [5B14D964] (AR v2)
Track 9 accurately ripped (confidence 2) [F95B37B8] (AR v2)
Track 10 accurately ripped (confidence 2) [78797440] (AR v2)
Track 11 accurately ripped (confidence 2) [89F4D3B4] (AR v2)
All tracks accurately ripped
End of status report
---- CUETools DB Plugin V2.1.3
[CTDB TOCID: JxeKJ8DWvYkf3ewczvdaCWBSuSk-] disk not present in database, Submit result: JxeKJ8DWvYkf3ewczvdaCWBSuSk- has been uploaded
==== Log checksum 8CA6607F6749F7FC82F69E5B89083FA553C81ABCFC43832CC6323E8D325AED7F ====

Содержание индексной карты (.CUE)

REM GENRE Vocal
REM DATE 1995
REM DISCID 910D4F0B
REM COMMENT "ExactAudioCopy v1.0b3"
CATALOG 0005023362000
PERFORMER "Bach J.C.F."
TITLE "Cassandra, Max"
FILE "Bach J.C.F. - Cassandra, Max.ape" WAVE
TRACK 01 AUDIO
TITLE "Odi, oTroia, Cassandra!"
PERFORMER "Bach J.C.F."
INDEX 01 00:00:00
TRACK 02 AUDIO
TITLE "Sospirosetti va faddoppiando gli umidi baci"
PERFORMER "Bach J.C.F."
INDEX 01 04:59:02
TRACK 03 AUDIO
TITLE "Non sempre rederai, scherzosa Dea"
PERFORMER "Bach J.C.F."
INDEX 01 08:06:30
TRACK 04 AUDIO
TITLE "Santa Dea, figlia di Giove"
PERFORMER "Bach J.C.F."
INDEX 01 13:23:22
TRACK 05 AUDIO
TITLE "Nulla ottien della Dea il Re Dolente!"
PERFORMER "Bach J.C.F."
INDEX 01 17:19:30
TRACK 06 AUDIO
TITLE "Dal fondo imo algoso il fiume sdegnoso"
PERFORMER "Bach J.C.F."
INDEX 01 31:05:20
TRACK 07 AUDIO
TITLE "Pur con l'aiuto di Vulcan"
PERFORMER "Bach J.C.F."
INDEX 01 33:09:17
TRACK 08 AUDIO
TITLE "Vieni o sposa, te felice se ti lice"
PERFORMER "Bach J.C.F."
INDEX 01 37:00:05
TRACK 09 AUDIO
TITLE "Ei cade sulla polve"
PERFORMER "Bach J.C.F."
INDEX 01 45:27:15
TRACK 10 AUDIO
TITLE "Quanti danni! Quanti affanni "
PERFORMER "Bach J.C.F."
INDEX 01 49:05:00
TRACK 11 AUDIO
TITLE "Chi nell'abisso mi sottera?"
PERFORMER "Bach J.C.F."
INDEX 01 55:18:42
Доп. информация:
J.C.F. Bach (1732-1795) is often referred to as the Bückeburg Bach because he spent nearly his whole life, beginning at age 17, as the concert-master at the court of a minor Saxon Count.
His 'captivity' there, like Haydn's at Esterhazy, was not uncomfortable but it surely stifled his ambitions for musical acclaim and consigned him to even more obscurity than the others of the Bach brood.
"Cassandra" is a relatively early composition, showing both the mastery of musical vocabulary he'd acquired from his father and the inspired innovations he learned from the fine Italian musicians he met in Bückeburg, some of them students of the great Baldassare Galuppi of Venice.
The result is a uniquely complex cantata, belonging more to the Gluck & Mozart future than to the baroque.
To call it a "dramatic" cantata is fully justified; it's nearly an opera for one singer in scope and in narrative thrust.



Показать сообщения:    

Текущее время: 08-Дек 19:07

Часовой пояс: UTC + 3


Вы не можете начинать темы
Вы не можете отвечать на сообщения
Вы не можете редактировать свои сообщения
Вы не можете удалять свои сообщения
Вы не можете голосовать в опросах
Вы не можете прикреплять файлы к сообщениям
Вы не можете скачивать файлы