(ECM New Series, Classical) Tre Voci - Takemitsu, Debussy, Gubaidulina / Губайдулина (Kashkashian, Magen, Piccinini) - 2014, FLAC (tracks+.cue), lossless


 

[Цитировать]

Töru Takemitsu, Claude Debussy, Sofia Gubaidulina
TRE VOCIKim Kashkashian, Sivan Magen, Marina Piccinini
- Жанр: Classical
Год издания диска: 2014
Издатель (лейбл): ECM New Series
Номер по каталогу: 0028948108800
Аудиокодек: FLAC
Тип рипа: tracks+.cue
Битрейт аудио: lossless
Продолжительность: 00:52:07
Релизер: The Weasel
Купить: Presto Classical
Наличие сканов: Front-
Töru Takemitsu
01. And Then I Knew `Twas Wind (15:10)
Claude Debussy
Sonata For Flute, Viola & Harp, L 137
02. 1. Pastorale (7:07)
03. 2. Interlude (6:09)
04. 3. Finale (4:56)
Sofia Gubaidulina
05. Garten Von Freuden Und Traurigkeiten (18:46)
-Исполнители:
Kim Kashkashian (viola)
Sivan Magen (harp)
Marina Piccinini (flute)
-

ОтчётыЛог создания рипа

X Lossless Decoder version 20140504 (147.0)
XLD extraction logfile from 2014-10-23 19:47:50 -0700
Kim Kashkashian, Marina Piccinini, Sivan Magen / Tre Voci
Used drive : MATSHITA DVD-R UJ-8A8 (revision HB14)
Media type : Pressed CD
Ripper mode : XLD Secure Ripper
Disable audio cache : OK for the drive with a cache less than 1375KiB
Make use of C2 pointers : NO
Read offset correction : 102
Max retry count : 20
Gap status : Analyzed, Appended (except HTOA)
TOC of the extracted CD
Track | Start | Length | Start sector | End sector
---------------------------------------------------------
1 | 00:00:00 | 15:09:42 | 0 | 68216
2 | 15:09:42 | 07:07:14 | 68217 | 100255
3 | 22:16:56 | 06:09:07 | 100256 | 127937
4 | 28:25:63 | 04:55:54 | 127938 | 150116
5 | 33:21:42 | 18:45:57 | 150117 | 234548
AccurateRip Summary
Disc not found in AccurateRip DB.
All Tracks
Album gain : 2.34 dB
Peak : 0.970001
Statistics
Read error : 0
Jitter error (maybe fixed) : 0
Retry sector count : 0
Damaged sector count : 0
Track 01
Filename : /Users/val/Music/Tre Voci/01 Kim Kashkashian, Marina Piccinini, Sivan Magen - Takemitsu: And Then I Knew `Twas Wind.flac
Pre-gap length : 00:02:00
Track gain : 5.70 dB
Peak : 0.604675
CRC32 hash (test run) : F5956555
CRC32 hash : F5956555
CRC32 hash (skip zero) : EEAEFCD3
AccurateRip v1 signature : 9BD62BC4
AccurateRip v2 signature : 487851B8
->Track not present in AccurateRip database.
Statistics
Read error : 0
Jitter error (maybe fixed) : 0
Retry sector count : 0
Damaged sector count : 0
Track 02
Filename : /Users/val/Music/Tre Voci/02 Kim Kashkashian, Marina Piccinini, Sivan Magen - Debussy: Sonata For Flute, Viola & Harp, L 137 - 1. Pastorale.flac
Pre-gap length : 00:06:56
Track gain : 3.11 dB
Peak : 0.659943
CRC32 hash (test run) : 355B7C09
CRC32 hash : 355B7C09
CRC32 hash (skip zero) : A75BFE36
AccurateRip v1 signature : DD2013DE
AccurateRip v2 signature : 9642D828
->Track not present in AccurateRip database.
Statistics
Read error : 0
Jitter error (maybe fixed) : 0
Retry sector count : 0
Damaged sector count : 0
Track 03
Filename : /Users/val/Music/Tre Voci/03 Kim Kashkashian, Marina Piccinini, Sivan Magen - Debussy: Sonata For Flute, Viola & Harp, L 137 - 2. Interlude.flac
Track gain : 2.11 dB
Peak : 0.889954
CRC32 hash (test run) : 68251E97
CRC32 hash : 68251E97
CRC32 hash (skip zero) : D376C82E
AccurateRip v1 signature : C1A96609
AccurateRip v2 signature : 966396E2
->Track not present in AccurateRip database.
Statistics
Read error : 0
Jitter error (maybe fixed) : 0
Retry sector count : 0
Damaged sector count : 0
Track 04
Filename : /Users/val/Music/Tre Voci/04 Kim Kashkashian, Marina Piccinini, Sivan Magen - Debussy: Sonata For Flute, Viola & Harp, L 137 - 3. Finale.flac
Track gain : -0.14 dB
Peak : 0.968231
CRC32 hash (test run) : AADA992E
CRC32 hash : AADA992E
CRC32 hash (skip zero) : EC7F26E7
AccurateRip v1 signature : F680D96B
AccurateRip v2 signature : 9EF259AF
->Track not present in AccurateRip database.
Statistics
Read error : 0
Jitter error (maybe fixed) : 0
Retry sector count : 0
Damaged sector count : 0
Track 05
Filename : /Users/val/Music/Tre Voci/05 Kim Kashkashian, Marina Piccinini, Sivan Magen - Gubaidulina: Garten Von Freuden Und Traurigkeiten.flac
Pre-gap length : 00:09:07
Track gain : 1.11 dB
Peak : 0.970001
CRC32 hash (test run) : 14420C32
CRC32 hash : 14420C32
CRC32 hash (skip zero) : D9AD5DE9
AccurateRip v1 signature : CE17F62F
AccurateRip v2 signature : 0BAD48D6
->Track not present in AccurateRip database.
Statistics
Read error : 0
Jitter error (maybe fixed) : 0
Retry sector count : 0
Damaged sector count : 0
No errors occurred
End of status report
-----BEGIN XLD SIGNATURE-----
.6tG3Tlfxa7VjEJFDNAOkkAYqRWXmOBQWgH0gmSz35iMDQgCAG3ErO.vYifdtu0rUDzztYQW4DJHsR_hCPYv3K61R3Zcu72HBreZbA0
-----END XLD SIGNATURE-----

Содержание индексной карты (.CUE)

REM REPLAYGAIN_ALBUM_GAIN 2.34 dB
REM REPLAYGAIN_ALBUM_PEAK 0.970001
REM GENRE Classical
REM DATE 2014
REM DISCID 300C3705
CATALOG 0028948108800
REM DISCNUMBER 1
REM TOTALDISCS 1
PERFORMER "Kim Kashkashian, Marina Piccinini, Sivan Magen"
TITLE "Tre Voci"
FILE "01 Kim Kashkashian, Marina Piccinini, Sivan Magen - Takemitsu: And Then I Knew `Twas Wind.flac" WAVE
TRACK 01 AUDIO
TITLE "And Then I Knew `Twas Wind"
PERFORMER "Kim Kashkashian, Marina Piccinini, Sivan Magen"
SONGWRITER "Toru Takemitsu"
ISRC DEB331334501
FLAGS DCP
REM "REPLAYGAIN_TRACK_GAIN 5.70 dB"
REM "REPLAYGAIN_TRACK_PEAK 0.604675"
INDEX 01 00:00:00
FILE "02 Kim Kashkashian, Marina Piccinini, Sivan Magen - Debussy: Sonata For Flute, Viola & Harp, L 137 - 1. Pastorale.flac" WAVE
TRACK 02 AUDIO
TITLE "Sonata For Flute, Viola & Harp, L 137 - 1. Pastorale"
PERFORMER "Kim Kashkashian, Marina Piccinini, Sivan Magen"
SONGWRITER "Claude Debussy"
ISRC DEB331334502
FLAGS DCP
REM "REPLAYGAIN_TRACK_GAIN 3.11 dB"
REM "REPLAYGAIN_TRACK_PEAK 0.659943"
INDEX 00 15:02:61
INDEX 01 15:09:42
FILE "03 Kim Kashkashian, Marina Piccinini, Sivan Magen - Debussy: Sonata For Flute, Viola & Harp, L 137 - 2. Interlude.flac" WAVE
TRACK 03 AUDIO
TITLE "Sonata For Flute, Viola & Harp, L 137 - 2. Interlude"
PERFORMER "Kim Kashkashian, Marina Piccinini, Sivan Magen"
SONGWRITER "Claude Debussy"
FLAGS DCP
REM "REPLAYGAIN_TRACK_GAIN 2.11 dB"
REM "REPLAYGAIN_TRACK_PEAK 0.889954"
INDEX 01 22:16:56
FILE "04 Kim Kashkashian, Marina Piccinini, Sivan Magen - Debussy: Sonata For Flute, Viola & Harp, L 137 - 3. Finale.flac" WAVE
TRACK 04 AUDIO
TITLE "Sonata For Flute, Viola & Harp, L 137 - 3. Finale"
PERFORMER "Kim Kashkashian, Marina Piccinini, Sivan Magen"
SONGWRITER "Claude Debussy"
ISRC DEB331334504
FLAGS DCP
REM "REPLAYGAIN_TRACK_GAIN -0.14 dB"
REM "REPLAYGAIN_TRACK_PEAK 0.968231"
INDEX 01 28:25:63
FILE "05 Kim Kashkashian, Marina Piccinini, Sivan Magen - Gubaidulina: Garten Von Freuden Und Traurigkeiten.flac" WAVE
TRACK 05 AUDIO
TITLE "Garten Von Freuden Und Traurigkeiten"
PERFORMER "Kim Kashkashian, Marina Piccinini, Sivan Magen"
SONGWRITER "Sofia Gubaidulina"
ISRC DEB331334505
FLAGS DCP
REM "REPLAYGAIN_TRACK_GAIN 1.11 dB"
REM "REPLAYGAIN_TRACK_PEAK 0.970001"
INDEX 00 33:12:35
INDEX 01 33:21:42

Лог проверки качества

-----------------------
DON'T MODIFY THIS FILE
-----------------------
PERFORMER: auCDtect Task Manager, ver. 1.6.0 RC1 build 1.6.0.1
Copyright (c) 2008-2010 y-soft. All rights reserved
http://y-soft.org
ANALYZER: auCDtect: CD records authenticity detector, version 0.8.2
Copyright (c) 2004 Oleg Berngardt. All rights reserved.
Copyright (c) 2004 Alexander Djourik. All rights reserved.
FILE: 05 Kim Kashkashian, Marina Piccinini, Sivan Magen - Gubaidulina: Garten Von Freuden Und Traurigkeiten.flac
Size: 66775865 Hash: 150A2230C61C63997CA24BDDC4CFE6A4 Accuracy: -m0
Conclusion: ???
Signature: 42BFF218FF6AA6A4E9CD42E6BAC0680D7AC7206D
FILE: 04 Kim Kashkashian, Marina Piccinini, Sivan Magen - Debussy: Sonata For Flute, Viola & Harp, L 137 - 3. Finale.flac
Size: 19796323 Hash: 8C4EB4F2A2F04499D5BE0A6BE747F7D5 Accuracy: -m0
Conclusion: ???
Signature: 1015838E92ABFE6B897D687072C7C84159DB532E
FILE: 03 Kim Kashkashian, Marina Piccinini, Sivan Magen - Debussy: Sonata For Flute, Viola & Harp, L 137 - 2. Interlude.flac
Size: 22302313 Hash: 1B7536ACAC570B15CB3F5023B0C03845 Accuracy: -m0
Conclusion: ???
Signature: F2A596D442AE4607C5E8CE99B75F298367B517C7
FILE: 02 Kim Kashkashian, Marina Piccinini, Sivan Magen - Debussy: Sonata For Flute, Viola & Harp, L 137 - 1. Pastorale.flac
Size: 25396080 Hash: 6F7972D0AFC8643D25BEA3562DA842C4 Accuracy: -m0
Conclusion: ???
Signature: D8D05F53AF15A520964A0A817EEA5AD16FA3B258
FILE: 01 Kim Kashkashian, Marina Piccinini, Sivan Magen - Takemitsu: And Then I Knew `Twas Wind.flac
Size: 50285010 Hash: 8D20648E5F3F4669722EBF66C3390CFA Accuracy: -m0
Conclusion: ???
Signature: BFA9D26E015211BFB6845D01FA3C367471C85D90

Динамический диапазон

foobar2000 1.2.2 / Замер динамического диапазона (DR) 1.1.1
Дата отчёта: 2014-10-25 17:18:00
--------------------------------------------------------------------------------
Анализ: Kim Kashkashian, Marina Piccinini, Sivan Magen / Tre Voci
--------------------------------------------------------------------------------
DR Пики RMS Продолжительность трека
--------------------------------------------------------------------------------
DR15 -4.37 дБ -26.93 дБ 15:10 ?-And Then I Knew `Twas Wind
DR14 -3.61 дБ -23.91 дБ 7:07 ?-Sonata For Flute, Viola & Harp, L 137 - 1. Pastorale
DR15 -1.01 дБ -23.22 дБ 6:09 ?-Sonata For Flute, Viola & Harp, L 137 - 2. Interlude
DR15 -0.28 дБ -20.49 дБ 4:56 ?-Sonata For Flute, Viola & Harp, L 137 - 3. Finale
DR16 -0.26 дБ -22.55 дБ 18:46 ?-Garten Von Freuden Und Traurigkeiten
--------------------------------------------------------------------------------
Количество треков: 5
Реальные значения DR: DR15
Частота: 44100 Гц
Каналов: 2
Разрядность: 16
Битрейт: 474 кбит/с
Кодек: FLAC
================================================================================

Скриншот спектра частот

Доп. информация

Релиз полностью готов к воспроизведению в аудиоплеере (я ориентировался на foobar2000)При скачивании, если необходимо, переименуйте папку, в которой будет находиться альбомБольшая просьба к скачавшим поддерживать раздачу! Помогайте другим, ведь вам тоже может понадобиться помощь!Не забываем говорить "Спасибо"!Комментарии приветствуются!



Показать сообщения:    

Текущее время: 04-Дек 13:08

Часовой пояс: UTC + 3


Вы не можете начинать темы
Вы не можете отвечать на сообщения
Вы не можете редактировать свои сообщения
Вы не можете удалять свои сообщения
Вы не можете голосовать в опросах
Вы не можете прикреплять файлы к сообщениям
Вы не можете скачивать файлы