Николай Караченцов. Нет жизни до и после... (Лариса Кичаева) [2014, Документальный, биография, искусство, SATRip]


Статистика раздачи [Обновить пиров]
Размер:  609 MB   |    Зарегистрирован:  8 месяцев 19 дней   |    Скачан:  0 раз

Полного источника не было: Никогда

 
   
 
 
 

[Цитировать]

Николай Караченцов. Нет жизни до и после...
Дата/Год выпуска: 2014
Страна: Россия, ООО "Зима Продакшн"
Жанр: Документальный, биография, искусство
Продолжительность: 00:51:58
Перевод: Не требуется
Русские субтитры: нет
Режиссер: Лариса Кичаева
Описание: Народный артист России Николай Караченцов всегда был воплощением жизнерадостности и успеха. У него была масса поклонников в Ленкоме, где на актёра ставились первые отечественные мюзиклы. А спектакль с его участием "Юнона и Авось", без преувеличения, стал легендой российского театра.
Сэмпл: http://sendfile.su/1039858
качество: SATRip
формат: AVI
Видео: 704x400 (1.76:1), 25 fps, XviD build 50 ~1499 kbps avg, 0.21 bit/pixel
Аудио: 48 kHz, MPEG Layer 3, 2 ch, ~128.00 kbps avg

MediaInfo

Complete name                            : C:\Users\Home\Desktop\Razdacha\Н.Караченцов.Нет жизни до и после.2014.SATRip.avi
Format : AVI
Format/Info : Audio Video Interleave
File size : 609 MiB
Duration : 51mn 58s
Overall bit rate : 1 638 Kbps
Writing application : VirtualDubMod 1.5.10.3 | www.virtualdub-fr.org || (build 2550/release)
Writing library : VirtualDubMod build 2550/release
Video
ID : 0
Format : MPEG-4 Visual
Format profile : Advanced Simple@L5
Format settings, BVOP : 2
Format settings, QPel : No
Format settings, GMC : No warppoints
Format settings, Matrix : Default (MPEG)
Codec ID : XVID
Codec ID/Hint : XviD
Duration : 51mn 58s
Bit rate : 1 500 Kbps
Width : 704 pixels
Height : 400 pixels
Display aspect ratio : 16:9
Frame rate : 25.000 fps
Color space : YUV
Chroma subsampling : 4:2:0
Bit depth : 8 bits
Scan type : Progressive
Compression mode : Lossy
Bits/(Pixel*Frame) : 0.213
Stream size : 558 MiB (92%)
Writing library : XviD 1.2.1 (UTC 2008-12-04)
Audio
ID : 1
Format : MPEG Audio
Format version : Version 1
Format profile : Layer 3
Codec ID : 55
Codec ID/Hint : MP3
Duration : 51mn 58s
Bit rate mode : Constant
Bit rate : 128 Kbps
Channel(s) : 2 channels
Sampling rate : 48.0 KHz
Compression mode : Lossy
Stream size : 47.6 MiB (8%)
Alignment : Aligned on interleaves
Interleave, duration : 40 ms (1.00 video frame)
Interleave, preload duration : 504 ms
Writing library : LAME3.99r
Encoding settings : -m s -V 4 -q 2 -lowpass 17 -b 128

Скриншоты

[teatrix.ru].t19315.torrent 
Торрент: Зарегистрирован [ 2016-03-18 12:36 ] · 3B1EA2F6F0D74F42F38950706DE5488FE60C5777

Скачать .torrent

Скачать

12 KB

Статус: проверено
Скачан: 0 раз
Размер: 609 MB
terms.php



Быстрый ответ

Имя:

      
Для отправки сообщений необходимо включить JavaScript
Показать сообщения:    

Текущее время: 06-Дек 17:11

Часовой пояс: UTC + 3


Вы можете начинать темы
Вы можете отвечать на сообщения
Вы не можете редактировать свои сообщения
Вы не можете удалять свои сообщения
Вы не можете голосовать в опросах
Вы не можете прикреплять файлы к сообщениям
Вы можете скачивать файлы