Нечеловеческие роли. Рина Зеленая (Игорь Литвинов) [2007, Документальный, биография, искусство, SATRip]


Статистика раздачи [Обновить пиров]
Размер:  513 MB   |    Зарегистрирован:  8 месяцев 18 дней   |    Скачан:  0 раз

Полного источника не было: Никогда

Личеров:  14  [  0 KB/s  ]   Подробная статистика пиров
 
   
 
 
 

[Цитировать]

Нечеловеческие роли. Рина Зеленая
Дата/Год выпуска: 2007
Страна: Россия, «Лидер ТВ»
Жанр: Документальный, биография, искусство
Продолжительность: 00:39:04
Перевод: Не требуется
Русские субтитры: нет
Режиссер: Игорь Литвинов
Описание: Народная артистка РСФСР Рина Зеленая играла персонажей, без которых спокойно можно было бы и обойтись, вот только без них фильмы стали бы пресными. Почему же талант Рины Зеленой оказался так мало востребован, и была ли она счастлива в своем творчестве? Екатерине Зеленой, по ее же собственным словам, необычная внешность во многом помогла поступить в театральную школу. Экзаменаторы, с трудом сдерживавшие смех, не смогли отказать абитуриентке. К своей "детской" внешности знаменитая "черепаха Тортилла" относилась с большим юмором. "Выходя на сцену, я всегда ощущала себя высокой красивой блондинкой", - шутила она и через паузу цитировала Веру Инбер: "Она была похожа на мальчика, который похож на девочку". Своим остроумием и находчивостью Екатерина Васильевна могла конкурировать с другой выдающейся актрисой - Фаиной Раневской. У них было много общего, и в первую очередь - общепризнанный талант, так и оставшийся, по большому счету, не реализованным ни в театре, ни в кино. Об актрисе вспоминают: режиссер Игорь Масленников, театральный критик Борис Поюровский, ученик Рины Зеленой Евгений Петросян, актриса Яна Поплавская и племянница актрисы Тамара Элиава.
Сэмпл: http://sendfile.su/1039950
качество: SATRip
формат: AVI
Видео: 704x464 (1.52:1), 25 fps, XviD build 50 ~1699 kbps avg, 0.21 bit/pixel
Аудио: 48 kHz, MPEG Layer 3, 2 ch, ~128.00 kbps avg

MediaInfo

Complete name                            : C:\Users\Home\Desktop\Razdacha\Нечеловеческие роли.Рина Зеленая.2007.SATRip.avi
Format : AVI
Format/Info : Audio Video Interleave
File size : 513 MiB
Duration : 39mn 4s
Overall bit rate : 1 838 Kbps
Writing application : VirtualDubMod 1.5.10.2 (build 2540/release)
Writing library : VirtualDubMod build 2540/release
Video
ID : 0
Format : MPEG-4 Visual
Format profile : Advanced Simple@L5
Format settings, BVOP : 2
Format settings, QPel : No
Format settings, GMC : No warppoints
Format settings, Matrix : Default (MPEG)
Codec ID : XVID
Codec ID/Hint : XviD
Duration : 39mn 4s
Bit rate : 1 700 Kbps
Width : 704 pixels
Height : 464 pixels
Display aspect ratio : 3:2
Frame rate : 25.000 fps
Color space : YUV
Chroma subsampling : 4:2:0
Bit depth : 8 bits
Scan type : Progressive
Compression mode : Lossy
Bits/(Pixel*Frame) : 0.208
Stream size : 475 MiB (93%)
Writing library : XviD 1.2.1 (UTC 2008-12-04)
Audio
ID : 1
Format : MPEG Audio
Format version : Version 1
Format profile : Layer 3
Mode : Joint stereo
Mode extension : MS Stereo
Codec ID : 55
Codec ID/Hint : MP3
Duration : 39mn 4s
Bit rate mode : Constant
Bit rate : 128 Kbps
Channel(s) : 2 channels
Sampling rate : 48.0 KHz
Compression mode : Lossy
Stream size : 35.8 MiB (7%)
Alignment : Aligned on interleaves
Interleave, duration : 40 ms (1.00 video frame)
Interleave, preload duration : 504 ms

Скриншоты

[teatrix.ru].t19316.torrent 
Торрент: Зарегистрирован [ 2016-03-18 12:50 ] · BAEE8DA55DCA669FFA1AF2171CD9B7A4FD3431DB

Скачать .torrent

Скачать

11 KB

Статус: проверено
Скачан: 0 раз
Размер: 513 MB
terms.php



Быстрый ответ

Имя:

      
Для отправки сообщений необходимо включить JavaScript
Показать сообщения:    

Текущее время: 06-Дек 11:08

Часовой пояс: UTC + 3


Вы можете начинать темы
Вы можете отвечать на сообщения
Вы не можете редактировать свои сообщения
Вы не можете удалять свои сообщения
Вы не можете голосовать в опросах
Вы не можете прикреплять файлы к сообщениям
Вы можете скачивать файлы