(Opera) Spontini - Li Puntigli delle Donne (Saudelli, Antonucci, Ruggeri, Hansen, Boesi - Putbus Festival Orchestra, Keitel) - 1998, APE (image+.cue) lossless


 

[Цитировать]

Gaspare Spontini - Li Puntigli delle Donne
Жанр: Opera
Страна-производитель диска: EU
Год издания диска: 1998
Издатель (лейбл): Arte Nova
Номер по каталогу: 74321 59198 2
Дата записи: 1998
Аудиокодек: APE
Тип рипа: image+.cue
Битрейт аудио: lossless
Продолжительность: 67'59+59'13
Источник: собственный рип
Наличие сканов в содержимом раздачи: да
Треклист:

CD1

1. Sinfonia (Erster Teil)
2. Introduzione
3. Recitativo
4. Cavatina a tre
5. Recitativo
6. Aria
7. Recitativo
8. Rondo
9. Recitativo
10. Aria
11. Recitativo
12. Quintetto
13. Recitativo
14. Aria
15. Recitativo
16. Finale l

CD2

1. Recitativo (Zweiter Teil)
2. Duetto
3. Recitativo
4. Aria
5. Recitativo
6. Duetto
7. Recitativo
8. Aria
9. Recitativo
10. Aria
11. Recitativo
12. Sestetto
13. Recitativo
14. Aria
15. Recitativo
16. Finale ll
Исполнители:
Gaspare Spontini - Li Puntigli delle Donne
Farsetta in musica a sette voci
Giannina - Johanna Hansen, soprano
Conte Brontolone - Gianpiero Ruggeri, baritone
Dottore Mangiacarte - Guido Boesi, baritone
Valerio - Patrizio Saudelli, tenor
Rosimene - Paola Antonucci, soprano
Cavaliere del Cinfolo - José Medina, tenor
Lisetta - Charlotte Zeiher, soprano
Putbus Festival Orchestra
Wilhelm Keitel
Sung in Italian

Лог создания рипа

CD1

Exact Audio Copy V1.0 beta 3 from 29. August 2011
EAC extraction logfile from 27. July 2013, 20:39
Spontini / Li Ppuntigli delle Donne, Keitel 1998 CD1
Used drive : TSSTcorpCDDVDW SH-216AB Adapter: 0 ID: 1
Read mode : Secure
Utilize accurate stream : Yes
Defeat audio cache : Yes
Make use of C2 pointers : No
Read offset correction : 6
Overread into Lead-In and Lead-Out : No
Fill up missing offset samples with silence : Yes
Delete leading and trailing silent blocks : No
Null samples used in CRC calculations : Yes
Used interface : Native Win32 interface for Win NT & 2000
Used output format : Monkey's Audio Lossless Encoder
Selected bitrate : High Lossless Compression
Quality : High
Add ID3 tag : Yes
Command line compressor : K:\Program Files (x86)\Exact Audio Copy\Monkeys Audio\Monkey's Audio\MAC.exe
Additional command line options : -6 -V -T "ARTIST=%artist%" -T "TITLE=%title%" -T "ALBUM=%albumtitle%" -T "DATE=%year%" -T "TRACKNUMBER=%tracknr%" -T "GENRE=%genre%" -T "COMMENT=%comment%" -T "BAND=%albuminterpret%" -T "ALBUMARTIST=%albuminterpret%" -T "COMPOSER=%composer%" %haslyrics%--tag-from-file=LYRICS="%lyricsfile%"%haslyrics% -T "DISCNUMBER=%cdnumber%" -T "TOTALDISCS=%totalcds%" -T "TOTALTRACKS=%numtracks%" %hascover%--picture="%coverfile%"%hascover% %source% -o %dest%
TOC of the extracted CD
Track | Start | Length | Start sector | End sector
---------------------------------------------------------
1 | 0:00.00 | 3:22.72 | 0 | 15221
2 | 3:22.72 | 6:28.38 | 15222 | 44359
3 | 9:51.35 | 3:11.65 | 44360 | 58749
4 | 13:03.25 | 3:09.52 | 58750 | 72976
5 | 16:13.02 | 2:51.45 | 72977 | 85846
6 | 19:04.47 | 5:24.15 | 85847 | 110161
7 | 24:28.62 | 2:19.08 | 110162 | 120594
8 | 26:47.70 | 6:40.52 | 120595 | 150646
9 | 33:28.47 | 1:27.38 | 150647 | 157209
10 | 34:56.10 | 3:37.15 | 157210 | 173499
11 | 38:33.25 | 1:53.60 | 173500 | 182034
12 | 40:27.10 | 8:32.07 | 182035 | 220441
13 | 48:59.17 | 1:52.23 | 220442 | 228864
14 | 50:51.40 | 3:29.30 | 228865 | 244569
15 | 54:20.70 | 1:50.60 | 244570 | 252879
16 | 56:11.55 | 11:49.67 | 252880 | 306121
Range status and errors
Selected range
Filename I:\Foobar-EAC\Spontini - Li Ppuntigli delle Donne, Keitel 1998 CD1.wav
Peak level 97.7 %
Extraction speed 3.3 X
Range quality 99.9 %
Test CRC 97147DB4
Copy CRC 97147DB4
Copy OK
No errors occurred
AccurateRip summary
Track 1 accurately ripped (confidence 2) [14274779] (AR v1)
Track 2 accurately ripped (confidence 2) [555A61AF] (AR v1)
Track 3 accurately ripped (confidence 2) [B16A4937] (AR v1)
Track 4 accurately ripped (confidence 2) [2B3EE569] (AR v1)
Track 5 accurately ripped (confidence 2) [EDB3A823] (AR v1)
Track 6 accurately ripped (confidence 2) [8074CB53] (AR v1)
Track 7 accurately ripped (confidence 2) [D783DAD4] (AR v1)
Track 8 accurately ripped (confidence 2) [2A25232D] (AR v1)
Track 9 accurately ripped (confidence 2) [6C998F68] (AR v1)
Track 10 accurately ripped (confidence 2) [CB9298D7] (AR v1)
Track 11 accurately ripped (confidence 2) [6184B98B] (AR v1)
Track 12 accurately ripped (confidence 2) [438968D7] (AR v1)
Track 13 accurately ripped (confidence 2) [7E7E1226] (AR v1)
Track 14 accurately ripped (confidence 2) [6DED4539] (AR v1)
Track 15 accurately ripped (confidence 2) [125998D2] (AR v1)
Track 16 accurately ripped (confidence 2) [A79E61D5] (AR v1)
All tracks accurately ripped
End of status report
==== Log checksum B6915042B34BD65316ABE1A97612192C90744DCEB7878C06D2915853761D9771 ====

CD2

Exact Audio Copy V1.0 beta 3 from 29. August 2011
EAC extraction logfile from 27. July 2013, 20:45
Spontini / Li Ppuntigli delle Donne, Keitel 1998 CD2
Used drive : TSSTcorpCDDVDW SE-208AB Adapter: 1 ID: 0
Read mode : Secure
Utilize accurate stream : Yes
Defeat audio cache : Yes
Make use of C2 pointers : No
Read offset correction : 6
Overread into Lead-In and Lead-Out : No
Fill up missing offset samples with silence : Yes
Delete leading and trailing silent blocks : No
Null samples used in CRC calculations : Yes
Used interface : Native Win32 interface for Win NT & 2000
Used output format : Monkey's Audio Lossless Encoder
Selected bitrate : High Lossless Compression
Quality : High
Add ID3 tag : Yes
Command line compressor : K:\Program Files (x86)\Exact Audio Copy\Monkeys Audio\Monkey's Audio\MAC.exe
Additional command line options : -6 -V -T "ARTIST=%artist%" -T "TITLE=%title%" -T "ALBUM=%albumtitle%" -T "DATE=%year%" -T "TRACKNUMBER=%tracknr%" -T "GENRE=%genre%" -T "COMMENT=%comment%" -T "BAND=%albuminterpret%" -T "ALBUMARTIST=%albuminterpret%" -T "COMPOSER=%composer%" %haslyrics%--tag-from-file=LYRICS="%lyricsfile%"%haslyrics% -T "DISCNUMBER=%cdnumber%" -T "TOTALDISCS=%totalcds%" -T "TOTALTRACKS=%numtracks%" %hascover%--picture="%coverfile%"%hascover% %source% -o %dest%
TOC of the extracted CD
Track | Start | Length | Start sector | End sector
---------------------------------------------------------
1 | 0:00.00 | 1:48.35 | 0 | 8134
2 | 1:48.35 | 3:55.07 | 8135 | 25766
3 | 5:43.42 | 1:50.08 | 25767 | 34024
4 | 7:33.50 | 3:06.67 | 34025 | 48041
5 | 10:40.42 | 1:03.08 | 48042 | 52774
6 | 11:43.50 | 5:03.52 | 52775 | 75551
7 | 16:47.27 | 3:11.30 | 75552 | 89906
8 | 19:58.57 | 3:16.38 | 89907 | 104644
9 | 23:15.20 | 1:13.67 | 104645 | 110186
10 | 24:29.12 | 2:33.00 | 110187 | 121661
11 | 27:02.12 | 4:36.43 | 121662 | 142404
12 | 31:38.55 | 7:35.70 | 142405 | 176599
13 | 39:14.50 | 1:54.60 | 176600 | 185209
14 | 41:09.35 | 6:23.52 | 185210 | 213986
15 | 47:33.12 | 0:51.68 | 213987 | 217879
16 | 48:25.05 | 10:50.45 | 217880 | 266674
Range status and errors
Selected range
Filename I:\Foobar-EAC\Spontini - Li Ppuntigli delle Donne, Keitel 1998 CD2.wav
Peak level 98.8 %
Extraction speed 2.0 X
Range quality 100.0 %
Test CRC 6821BF22
Copy CRC 6821BF22
Copy OK
No errors occurred
AccurateRip summary
Track 1 accurately ripped (confidence 2) [A0A5E7EB] (AR v1)
Track 2 accurately ripped (confidence 2) [E2723E20] (AR v1)
Track 3 accurately ripped (confidence 2) [B1181D49] (AR v1)
Track 4 accurately ripped (confidence 2) [CBA3CC77] (AR v1)
Track 5 accurately ripped (confidence 2) [72A02421] (AR v1)
Track 6 accurately ripped (confidence 2) [C79612F5] (AR v1)
Track 7 accurately ripped (confidence 2) [90079EF0] (AR v1)
Track 8 accurately ripped (confidence 2) [0F0787A2] (AR v1)
Track 9 accurately ripped (confidence 2) [D2035A29] (AR v1)
Track 10 accurately ripped (confidence 2) [7F975FF4] (AR v1)
Track 11 accurately ripped (confidence 2) [37E4C6F9] (AR v1)
Track 12 accurately ripped (confidence 2) [324C6EC3] (AR v1)
Track 13 accurately ripped (confidence 2) [C0CA9A30] (AR v1)
Track 14 accurately ripped (confidence 2) [F8EF0E91] (AR v1)
Track 15 accurately ripped (confidence 2) [22B91CE2] (AR v1)
Track 16 accurately ripped (confidence 2) [750440FA] (AR v1)
All tracks accurately ripped
End of status report
==== Log checksum F1E82FD9E8CE1ED230E302E9D7FEC5B2A1C5183DC008CCC59EC40D5B6F908207 ====

Содержание индексной карты (.CUE)

CD1

REM GENRE Opera
REM DATE 1998
REM DISCID D40FF110
REM COMMENT "ExactAudioCopy v1.0b3"
CATALOG 0000000000000
PERFORMER "Spontini"
TITLE "Li Ppuntigli delle Donne, Keitel 1998 CD1"
FILE "Spontini - Li Ppuntigli delle Donne, Keitel 1998 CD1.ape" WAVE
TRACK 01 AUDIO
TITLE "Parte prima Sinfonia"
PERFORMER "Spontini"
INDEX 01 00:00:00
TRACK 02 AUDIO
TITLE "Introduzione"
PERFORMER "Spontini"
INDEX 00 03:22:62
INDEX 01 03:22:72
TRACK 03 AUDIO
TITLE "Recitativo"
PERFORMER "Spontini"
INDEX 00 09:51:22
INDEX 01 09:51:35
TRACK 04 AUDIO
TITLE "Cavatina a tre"
PERFORMER "Spontini"
INDEX 00 13:03:15
INDEX 01 13:03:25
TRACK 05 AUDIO
TITLE "Recitativo"
PERFORMER "Spontini"
INDEX 00 16:12:67
INDEX 01 16:13:02
TRACK 06 AUDIO
TITLE "Aria"
PERFORMER "Spontini"
INDEX 00 19:04:37
INDEX 01 19:04:47
TRACK 07 AUDIO
TITLE "Recitativo"
PERFORMER "Spontini"
INDEX 00 24:28:52
INDEX 01 24:28:62
TRACK 08 AUDIO
TITLE "Rondo"
PERFORMER "Spontini"
INDEX 00 26:47:60
INDEX 01 26:47:70
TRACK 09 AUDIO
TITLE "Recitativo"
PERFORMER "Spontini"
INDEX 00 33:28:37
INDEX 01 33:28:47
TRACK 10 AUDIO
TITLE "Aria"
PERFORMER "Spontini"
INDEX 00 34:56:00
INDEX 01 34:56:10
TRACK 11 AUDIO
TITLE "Recitativo"
PERFORMER "Spontini"
INDEX 00 38:33:15
INDEX 01 38:33:25
TRACK 12 AUDIO
TITLE "Quintetto"
PERFORMER "Spontini"
INDEX 00 40:27:00
INDEX 01 40:27:10
TRACK 13 AUDIO
TITLE "Recitativo"
PERFORMER "Spontini"
INDEX 00 48:59:07
INDEX 01 48:59:17
TRACK 14 AUDIO
TITLE "Aria"
PERFORMER "Spontini"
INDEX 00 50:51:30
INDEX 01 50:51:40
TRACK 15 AUDIO
TITLE "Recitativo"
PERFORMER "Spontini"
INDEX 00 54:20:60
INDEX 01 54:20:70
TRACK 16 AUDIO
TITLE "Finale I"
PERFORMER "Spontini"
INDEX 00 56:11:45
INDEX 01 56:11:55

CD2

REM GENRE Opera
REM DATE 1998
REM DISCID BF0DE310
REM COMMENT "ExactAudioCopy v1.0b3"
PERFORMER "Spontini"
TITLE "Li Ppuntigli delle Donne, Keitel 1998 CD2"
FILE "Spontini - Li Ppuntigli delle Donne, Keitel 1998 CD2.ape" WAVE
TRACK 01 AUDIO
TITLE "Parte seconda Recitativo"
PERFORMER "Spontini"
INDEX 01 00:00:00
TRACK 02 AUDIO
TITLE "Duetto"
PERFORMER "Spontini"
INDEX 00 01:48:25
INDEX 01 01:48:35
TRACK 03 AUDIO
TITLE "Recitativo"
PERFORMER "Spontini"
INDEX 00 05:43:32
INDEX 01 05:43:42
TRACK 04 AUDIO
TITLE "Aria"
PERFORMER "Spontini"
INDEX 00 07:33:40
INDEX 01 07:33:50
TRACK 05 AUDIO
TITLE "Recitativo"
PERFORMER "Spontini"
INDEX 00 10:40:32
INDEX 01 10:40:42
TRACK 06 AUDIO
TITLE "Duetto"
PERFORMER "Spontini"
INDEX 00 11:43:40
INDEX 01 11:43:50
TRACK 07 AUDIO
TITLE "Recitativo"
PERFORMER "Spontini"
INDEX 00 16:47:17
INDEX 01 16:47:27
TRACK 08 AUDIO
TITLE "Aria"
PERFORMER "Spontini"
INDEX 00 19:58:47
INDEX 01 19:58:57
TRACK 09 AUDIO
TITLE "Recitativo"
PERFORMER "Spontini"
INDEX 00 23:15:10
INDEX 01 23:15:20
TRACK 10 AUDIO
TITLE "Aria"
PERFORMER "Spontini"
INDEX 00 24:29:02
INDEX 01 24:29:12
TRACK 11 AUDIO
TITLE "Recitativo"
PERFORMER "Spontini"
INDEX 00 27:02:02
INDEX 01 27:02:12
TRACK 12 AUDIO
TITLE "Sestetto"
PERFORMER "Spontini"
INDEX 00 31:38:17
INDEX 01 31:38:55
TRACK 13 AUDIO
TITLE "Recitativo"
PERFORMER "Spontini"
INDEX 00 39:14:40
INDEX 01 39:14:50
TRACK 14 AUDIO
TITLE "Aria"
PERFORMER "Spontini"
INDEX 00 41:09:25
INDEX 01 41:09:35
TRACK 15 AUDIO
TITLE "Recitativo"
PERFORMER "Spontini"
INDEX 00 47:33:02
INDEX 01 47:33:12
TRACK 16 AUDIO
TITLE "Finale II"
PERFORMER "Spontini"
INDEX 00 48:24:70
INDEX 01 48:25:05



Показать сообщения:    

Текущее время: 10-Дек 09:57

Часовой пояс: UTC + 3


Вы не можете начинать темы
Вы не можете отвечать на сообщения
Вы не можете редактировать свои сообщения
Вы не можете удалять свои сообщения
Вы не можете голосовать в опросах
Вы не можете прикреплять файлы к сообщениям
Вы не можете скачивать файлы