Лев Ландау. Штрихи к портрету (Б. Эпштейн) [1971, документальный, DVDRip]


Статистика раздачи [Обновить пиров]
Размер:  261 MB   |    Зарегистрирован:  8 месяцев 23 дня   |    Скачан:  0 раз

Полного источника не было: Никогда

 
   
 
 
 

[Цитировать]

Лев Ландау. Штрихи к портрету
Дата/Год выпуска: 1971
Страна: СССР
Жанр: документальный
Продолжительность: 00:19:50
Перевод: Не требуется
Режиссер: Б. Эпштейн
Описание: Фильм об учёном-физике, лауреате Нобелевской премии академике Л. Д. Ландау
Доп. информация:
Автор сценария - А. Родионов
Консультант - Член-корреспондент АН СССР А.А. Абрикосов
Производство - Центрнаучфильм
За раздачу http://teatrix.ru/viewtopic.php?t=4818725 особая благодарность Gahan Dave
качество: DVDRip
формат: AVI
Видео: DivX, 1700 Кбит/сек, 704 x 528 (1.333), 25.000 fps
Аудио: MP3, 128 Кбит/сек, 2 канала, 48,0 КГц

MediaInfo

Общее
Полное имя : T:\Мои раздачи\Лев Ландау. Штрихи к портрету (1971)\Лев Ландау. Штрихи к портрету (1971).avi
Формат : AVI
Формат/Информация : Audio Video Interleave
Размер файла : 261 Мбайт
Продолжительность : 19 м.
Общий поток : 1838 Кбит/сек
Программа кодирования : VirtualDubMod 1.5.10.2 (build 2540/release)
Библиотека кодирования : VirtualDubMod build 2540/release
Видео
Идентификатор : 0
Формат : MPEG-4 Visual
Профиль формата : Advanced Simple@L5
Параметр BVOP формата : 3
Параметр QPel формата : Нет
Параметр GMC формата : Без точки перехода
Параметр матрицы формата : Default (H.263)
Идентификатор кодека : XVID
Идентификатор кодека/Подсказка : XviD
Продолжительность : 19 м.
Битрейт : 1700 Кбит/сек
Ширина : 704 пикселя
Высота : 528 пикселей
Соотношение сторон : 4:3
Частота кадров : 25,000 кадров/сек
Цветовое пространство : YUV
Субдискретизация насыщенности : 4:2:0
Битовая глубина : 8 бит
Тип развёртки : Прогрессивная
Метод сжатия : С потерями
Бит/(Пиксели*Кадры) : 0.183
Размер потока : 241 Мбайт (93%)
Библиотека кодирования : XviD 1.2.1 (UTC 2008-12-04)
Аудио
Идентификатор : 1
Формат : MPEG Audio
Версия формата : Version 1
Профиль формата : Layer 3
Идентификатор кодека : 55
Идентификатор кодека/Подсказка : MP3
Продолжительность : 19 м.
Вид битрейта : Постоянный
Битрейт : 128 Кбит/сек
Каналы : 2 канала
Частота : 48,0 КГц
Метод сжатия : С потерями
Размер потока : 18,2 Мбайт (7%)
Выравнивание : Соединение по промежуткам
Продолжительность промежутка : 40 мс. (1,00 видеокадр)
Время предзагрузки промежутка : 504 мс.
Библиотека кодирования : LAME3.98r
Настройки программы : -m s -V 4 -q 2 -lowpass 17 -b 128

Скриншоты

[teatrix.ru].t19328.torrent 
Торрент: Зарегистрирован [ 2016-03-18 12:41 ] · 7F94678F61DE7FD6E0FA7219CDDE32F8D39E8870

Скачать .torrent

Скачать

11 KB

Статус: проверено
Скачан: 0 раз
Размер: 261 MB
terms.php



Быстрый ответ

Имя:

      
Для отправки сообщений необходимо включить JavaScript
Показать сообщения:    

Текущее время: 11-Дек 07:10

Часовой пояс: UTC + 3


Вы можете начинать темы
Вы можете отвечать на сообщения
Вы не можете редактировать свои сообщения
Вы не можете удалять свои сообщения
Вы не можете голосовать в опросах
Вы не можете прикреплять файлы к сообщениям
Вы можете скачивать файлы