Вечные темы. Разговор с Александром Пятигорским (Улдис Тиронс) [2014 - 2016, Документальный сериал, DVB] Обновлено 20.02.2016. Добавлены 5 - 8 серии.


Статистика раздачи [Обновить пиров]
Размер:  4.56 GB   |    Зарегистрирован:  8 месяцев 20 дней   |    Скачан:  0 раз

Полного источника не было: Никогда

Личеров:  44  [  0 KB/s  ]   Подробная статистика пиров
 
   
 
 
 

[Цитировать]

Вечные темы. Разговор с Александром Пятигорским
Дата/Год выпуска: 2014 - 2016
Страна: Россия
Жанр: Документальный сериал
Продолжительность: 8 серий по ~26 мин.
Перевод: Не требуется
Режиссер: Улдис Тиронс
Телеканал: Россия К
Описание: 21-24 октября в 23:30 на телеканале "Россия К" – премьера документального сериала "Разговор с Александром Пятигорским" из цикла "Вечные темы", посвященного памяти выдающегося мыслителя и философа, пять лет назад ушедшего из жизни.
Александр Пятигорский – один из ярчайших отечественных мыслителей ХХ века, известный востоковед и буддолог, знаток санскрита и создатель первого Тамильско-русского словаря, профессор Лондонского университета, близкий друг Мераба Мамардашвили, Юрия Лотмана и Вячеслава Иванова. Когда уходят люди такого масштаба, у них в кармане всегда есть "вечная страховка" по тому, как они жили, и таких людей, действительно, очень мало". Эти слова Пятигорского в полной мере можно отнести и к нему самому…
"Больше всего в жизни я люблю возможность и реальность слушания и разговора", – признавался философ. Документальный фильм Улдиса Тиронса "Разговор с Александром Пятигорским" (21-24 октября, 23:30) дает возможность присоединиться к этому разговору, в котором свободно соединяются воспоминания и размышления об ушедших друзьях-философах; о буддизме, индуизме и йоге, о парадоксах мышления и высшем знании; об отношении философии к жизни и смерти, о том, что значит философствовать и как становятся философами. Благодаря чувству юмора и артистическому обаянию Пятигорский делает эти сложные проблемы близкими и понятными каждому, кого волнуют "вечные темы". Его рассуждения о мире и о нашем месте в нем иногда парадоксальны, иногда шокирующие, но всегда поражают глубиной своей продуманности. Но самое главное – это редкий шанс для телезрителей попасть в несрежиссированный поток сознания выдающегося ученого, удивительная возможность оказаться рядом при рождении его мыслей и ощутить радость непосредственного разговора с ним.
Как прирожденный философ, Александр Моисеевич Пятигорский считал собственную философию неотделимой частью своей жизни, без которой не мыслил своего существования: "Моя философия относится к моей жизни самым непосредственным образом, она включена в жизнь как ее линия. Я не могу жить, этого не делая. Это потребность, та составляющая, без которой невозможна результирующая линия моей жизни. И этот выбор – жить или философствовать – это для меня вопрос физиологии и смерти. Философ боится смерти, как и любой человек, но полнота его философствования с включением в небо, смерти…. Но самое важное, что есть жизнь! И когда ангел смерти призовет меня и будет взвешивать, я закричу: "Подожди минутку! Дай подумать! Я еще не сформулировал…".
20.02.2016 добавлены 5 - 8 серии
Рип http://teatrix.ru/viewtopic.php?t=4851621
качество: DVB
формат: MPG
Видео: MPEG-PS, 768@720x576, 4:3, 2191 - 3193 kbps, 0.286 bit/pixel, 25 fps
Аудио: MPEG-1 Layer 2, 48000Hz 2 chanal

MediaInfo

Общее
Полное имя : D:\ВЕЧНЫЕ ТЕМЫ. Разговор с Александром Пятигорским\2014-10-21. ВЕЧНЫЕ ТЕМЫ. Разговор с Александром Пятигорским. 1-я серия.mpg
Формат : MPEG-PS
Размер файла : 636 Мбайт
Продолжительность : 25 м.
Режим общего битрейта : Переменный
Общий поток : 3454 Кбит/сек
Библиотека кодирования : (c) 1998-2009 Womble Multimedia, Inc. / MPEG Video Wizard (03/2009) / Jun 24 2009
Видео
Идентификатор : 224 (0xE0)
Формат : MPEG Video
Версия формата : Version 2
Профиль формата : Main@Main
Параметр BVOP формата : Да
Параметр матрицы формата : Выборочная
Параметр GOP формата : Variable
Продолжительность : 25 м.
Вид битрейта : Переменный
Битрейт : 3193 Кбит/сек
Максимальный битрейт : 15,0 Мбит/сек
Ширина : 720 пикселей
Высота : 576 пикселей
Соотношение сторон : 4:3
Частота кадров : 25,000 кадров/сек
Стандарт вещания : PAL
Цветовое пространство : YUV
Субдискретизация насыщенности : 4:2:0
Битовая глубина : 8 бит
Тип развёртки : Чересстрочная
Порядок развёртки : Верхнее поле первое
Метод сжатия : С потерями
Бит/(Пиксели*Кадры) : 0.308
Временной код первого кадра : 00:00:00:00
Оригинал временного кода : Group of pictures header
Размер потока : 588 Мбайт (92%)
Библиотека кодирования : (c) 1998-2009 Womble Multimedia, Inc. / MPEG Video Wizard (03/2009) / Jun 24 2009
Аудио
Идентификатор : 192 (0xC0)
Формат : MPEG Audio
Версия формата : Version 1
Профиль формата : Layer 2
Продолжительность : 25 м.
Вид битрейта : Постоянный
Битрейт : 192 Кбит/сек
Каналы : 2 канала
Частота : 48,0 КГц
Метод сжатия : С потерями
Размер потока : 35,4 Мбайт (6%)

Скриншоты

[teatrix.ru].t19329.torrent 
Торрент: Зарегистрирован [ 2016-03-18 12:49 ] · E07D6E25B5CC7BFDAE188D8EBCFFA4B3477962F0

Скачать .torrent

Скачать

25 KB

Статус: проверено
Скачан: 0 раз
Размер: 4.56 GB
terms.php



Быстрый ответ

Имя:

      
Для отправки сообщений необходимо включить JavaScript
Показать сообщения:    

Текущее время: 08-Дек 10:52

Часовой пояс: UTC + 3


Вы можете начинать темы
Вы можете отвечать на сообщения
Вы не можете редактировать свои сообщения
Вы не можете удалять свои сообщения
Вы не можете голосовать в опросах
Вы не можете прикреплять файлы к сообщениям
Вы можете скачивать файлы